<?xml version="1.0" standalone="no"?>
<!DOCTYPE svg PUBLIC "-//W3C//DTD SVG 1.1//EN" "http://www.w3.org/Graphics/SVG/1.1/DTD/svg11.dtd" >
<svg xmlns="http://www.w3.org/2000/svg">
<defs>
<font id="GoodDog" horiz-adv-x="823" >
  <font-face 
    font-family="GoodDog"
    font-weight="400"
    font-stretch="normal"
    units-per-em="2048"
    panose-1="2 0 0 0 0 0 0 0 0 0"
    ascent="1638"
    descent="-410"
    x-height="935"
    cap-height="1184.5"
    bbox="-220.227 -358 1247.42 1716.73"
    underline-thickness="40"
    underline-position="-231"
    unicode-range="U+0020-U+00FC"
  />
<missing-glyph horiz-adv-x="748" 
d="M68 0v1365h544v-1365h-544zM136 68h408v1229h-408v-1229z" />
    <glyph glyph-name=".notdef" horiz-adv-x="748" 
d="M68 0v1365h544v-1365h-544zM136 68h408v1229h-408v-1229z" />
    <glyph glyph-name=".null" horiz-adv-x="0" 
 />
    <glyph glyph-name="nonmarkingreturn" horiz-adv-x="682" 
 />
    <glyph glyph-name="space" unicode=" " horiz-adv-x="378" 
 />
    <glyph glyph-name="exclam" unicode="!" horiz-adv-x="473" 
d="M211 246q14 -10 41 -10q-4 -29 6 -78t5 -83t-42 -57q-76 -45 -121 5.5t-65 140.5q0 61 60.5 90t115.5 -8zM182 340q-27 10 -40 26.5t-14 39t1 42t8 48t8 45.5q59 449 150 712q14 43 60 54.5t83 -9t33 -55.5q-12 -158 -88 -456t-94 -431q-1 -59 -107 -16z" />
    <glyph glyph-name="quotedbl" unicode="&#x22;" horiz-adv-x="600" 
d="M432 952q0 172 27 291q8 37 63 60q62 25 68 -19q8 -57 8 -128t-4 -119t-14.5 -134t-14.5 -125q-6 -20 -51 -24t-65 24q-8 20 -12.5 45t-5.5 40.5t0 47t1 41.5zM59 961q0 2 -4 133t4 133q4 43 48.5 65.5t68.5 -8.5q51 -70 57.5 -157t-13 -206.5t-19.5 -175.5
q0 -14 -25.5 -21t-54.5 -1t-37 31q-25 66 -25 207z" />
    <glyph glyph-name="numbersign" unicode="#" horiz-adv-x="1005" 
d="M539 375q-27 -12 -53.5 -7t-50 1t-29.5 -25q-12 -55 7 -166.5t3 -157.5q-14 -37 -69.5 -13t-72.5 65q-14 39 -28.5 123t-30.5 118q-14 31 -83 10.5t-89 10.5q-16 39 -16 60.5t27.5 40t54 27.5l63.5 21.5t53 22.5q-16 33 -4 71.5t10 69.5t-36 31q-6 0 -24.5 -26.5
t-37.5 -14.5q-72 25 -90 51q-18 57 10 100q20 23 93 56t90 65q16 23 19 63t-2 75.5t1 74.5q12 70 84 75t108 -44q31 -37 5.5 -126t5.5 -118q39 -29 105.5 -13.5t96.5 54.5q41 41 58.5 158t52.5 156q20 29 48 41t63 -11q10 -8 32.5 -15t36 -14.5t13.5 -21.5q4 -35 -44.5 -129
t-7.5 -133q6 -6 43 -29.5t47 -42.5q8 -14 2 -37.5t-20 -31.5q-20 -10 -66.5 -19.5t-66.5 -21.5q-37 -20 -32 -93t-17 -110q12 -6 20 -21.5t10 -17.5q59 -10 102.5 -43t8.5 -80q-20 -27 -75.5 -29t-65.5 -20q-27 -41 -11.5 -151.5t1.5 -151.5q-31 -59 -132 41q-18 16 -28 47
t-12.5 56.5t-5.5 70.5t-5 68q0 20 -25.5 20t-43.5 -10zM539 537q49 -12 72.5 27.5t21.5 94t-4 99.5q-39 -10 -77 -6t-75 -1.5t-51 -31.5q-72 -135 10 -193q10 -10 46.5 2.5t56.5 8.5z" />
    <glyph glyph-name="dollar" unicode="$" horiz-adv-x="624" 
d="M61 276q-45 39 -19 76t69 37q23 4 50 -17.5l46.5 -37t30.5 -2.5q29 39 36 99.5t1.5 114.5t3.5 116q-94 37 -160 97t-66 142q0 37 25 49q88 113 272 152q43 14 50.5 23.5t-1 26.5t6.5 60q12 25 39.5 30t33.5 -13q25 -29 12.5 -60.5t-4.5 -66.5q4 -12 24.5 -25.5t44.5 -23
t44.5 -22.5t22.5 -27.5t-17 -36.5q-16 -16 -68.5 -7t-74.5 -2q-45 -29 -52.5 -97t19.5 -103q16 -25 57 -51.5t73 -56t38 -68.5q23 -127 -23 -234q-18 -43 -93.5 -81t-98.5 -70q-31 -45 -16.5 -93.5t-32.5 -93.5q-12 -18 -42 -6t-30 31q-8 53 -2 70.5t5 37t-19 54.5
q-12 25 -84 40.5t-101 38.5zM383 422q0 -8 -5 -22.5t-5 -24.5t10 -19q27 -8 53.5 2.5t26.5 38.5q17 58 -9 123q-21 53 -57 29q-14 -16 -14 -127zM246 918q-53 -27 -39 -72q4 -16 22.5 -31.5t32.5 -15.5q29 -4 39 23.5t4 62.5t-18 57q-8 6 -12.5 3t-13.5 -14t-15 -13z" />
    <glyph glyph-name="percent" unicode="%" horiz-adv-x="1269" 
d="M246 752q-6 2 -27.5 8t-28 8t-23.5 8l-25.5 9t-22 9.5t-22.5 12.5t-19 14t-19 19q-51 61 -38.5 129.5t67.5 107.5q195 137 318 80q90 -43 122.5 -154.5t-24.5 -201.5q-70 -106 -258 -49zM217 930q-8 -51 46 -70.5t93 10.5q18 14 22.5 27.5t0.5 34t-4 26.5q0 4 -4 9.5
t-12.5 11.5t-12.5 10q-43 8 -83 -5t-46 -54zM334 309q47 139 127 266t216 300.5t185 242.5q27 37 50.5 44t68.5 -15q16 -16 18 -50t-6 -50q-51 -109 -143 -247t-171 -243.5t-159 -249t-119 -276.5q-45 -6 -69.5 -5t-36.5 20.5t-16 70.5q0 31 8 60.5t24.5 72.5zM666 291
q12 29 40.5 68.5t34.5 54.5q10 10 48 31.5t55 41.5q37 39 139 39q96 -16 169 -94t67 -178q-29 -20 -70 -54l-73 -60.5t-73.5 -54.5t-78.5 -43t-83 -15t-91 20q-63 29 -88 101.5t4 142.5zM852 236q-12 -31 -1 -54.5t40 -11.5q12 8 38.5 23.5l42 24.5t37 27.5t22.5 31t-1 32.5
q-33 59 -93 24.5t-85 -97.5z" />
    <glyph glyph-name="ampersand" unicode="&#x26;" horiz-adv-x="567" 
d="M528 862q6 -90 -61 -123q-23 -20 -56.5 -17t-50.5 32q-8 8 -7 39.5t-1 52.5q-12 27 -41.5 23.5t-42.5 -23.5q-39 -47 -9 -120t93 -95q16 -6 20.5 -32t-3.5 -36q-4 -8 -10.5 -16t-14.5 -13.5l-14 -9.5t-18.5 -7t-18.5 -5t-20.5 -4t-19.5 -2t-23.5 -2t-22.5 -2
q-14 -14 -14 -31q6 -18 23 -32.5t32.5 -19.5t19.5 -1q92 45 166 34q59 -9 41 -65q-14 -47 -43 -104.5t-44 -106.5t-13 -113q2 -31 -36 -56t-71 -13q-16 0 -31.5 17.5t-21.5 35.5q0 51 22.5 108.5t22.5 108.5q-4 25 -59.5 33t-69.5 20q-66 53 -92 132q-20 53 37 110t55 96
q-2 6 -11 40t-11.5 48.5t-6.5 42t0 49t13 42.5q29 51 92 100q25 12 94.5 14t81.5 31q23 51 19.5 110.5t25.5 110.5q23 37 83 24.5t56 -61.5q-6 -61 -18 -119.5t-18.5 -106.5t-2.5 -118z" />
    <glyph glyph-name="quotesingle" unicode="'" horiz-adv-x="247" 
d="M219 967q-2 -18 3 -54t6 -54.5t-9 -43.5q-14 -20 -47 -26.5t-45 10.5q-31 35 -47.5 75.5t-16.5 98t1.5 85t14.5 103.5l15 88q2 23 18.5 38.5t38 19.5t43 2t36 -15.5t14.5 -36.5q6 -61 3 -92.5t-14.5 -97t-13.5 -100.5z" />
    <glyph glyph-name="parenleft" unicode="(" horiz-adv-x="677" 
d="M635 1286q70 -70 31 -98q-45 -41 -171 -128t-186 -149q-53 -55 -72.5 -129.5t-16.5 -135t20 -150.5q2 -8 8 -44t9 -46.5t10 -42t12.5 -46t14.5 -41t19.5 -43l24.5 -37t31 -36.5q12 -8 36.5 -2t38 9t23.5 -17q14 -31 4 -62t-33 -47q-109 -49 -139 -39q-8 2 -30.5 6
t-36 9.5t-21.5 13.5q-238 360 -178 733q0 12 5 29.5l12 41l11 37.5q119 238 476 424q53 39 98 -10z" />
    <glyph glyph-name="parenright" unicode=")" horiz-adv-x="638" 
d="M246 1311q41 10 82 -11q162 -174 282 -524q55 -166 0 -303q-98 -238 -444 -455q-61 -37 -131 0q-14 12 -12 38t12 44q41 45 141 122t162.5 149.5t79.5 163.5q31 156 -47 316.5t-215 287.5q-43 45 -9.5 100.5t99.5 71.5z" />
    <glyph glyph-name="asterisk" unicode="*" horiz-adv-x="851" 
d="M524 1311q29 0 52.5 -18.5t13.5 -47.5q-45 -127 -66 -244q20 -8 59.5 -4t57.5 7.5t55 12.5t56 13q53 18 85.5 -13.5t-3.5 -74.5q-39 -45 -139.5 -55t-133.5 -27q37 -43 76 -84t100.5 -100.5l81.5 -79.5q0 -14 -14 -29q-49 -27 -105 0q-39 16 -73.5 44t-82.5 76l-65 65
q-14 -37 -40.5 -122t-53.5 -143.5t-68 -103.5q-16 -23 -61 -20.5t-35 40.5q10 59 64.5 190.5t54.5 209.5q-113 -20 -221 -74q-37 -14 -74 0q-49 39 -14 74q33 49 132 76.5t132 54.5q-63 90 -205 156q-8 2 -10 9t0 20.5t2 15.5q0 35 35 60.5t67 4.5q43 -27 114 -80t93 -67
q8 -8 9 8q3 32 6 37q4 14 16 82.5t33.5 99.5t68.5 31z" />
    <glyph glyph-name="plus" unicode="+" horiz-adv-x="661" 
d="M287 743q0 27 -11.5 64t-21.5 63.5t-6 58.5t28 56q37 29 113 29q27 -4 46.5 -22.5t19.5 -35.5q6 -25 6 -97.5t22 -100.5q14 -18 72.5 -14t87.5 -9q35 -27 19 -65q-41 -39 -150 -52l-14.5 -7t-17.5 -11t-7 -12q0 -27 7 -74t9.5 -73.5t-6.5 -71.5q-6 -23 -44 -26t-58 17
q-43 29 -60.5 106t-33.5 99q-31 25 -57.5 23t-81 -11.5t-87.5 -3.5q-39 12 -34.5 41t34.5 39q111 41 215 54q8 2 10.5 7t1.5 16t-1 13z" />
    <glyph glyph-name="comma" unicode="," horiz-adv-x="299" 
d="M283 295q43 -31 -5.5 -233.5t-111.5 -239.5q-33 -18 -53.5 0t-29.5 66.5t-13 95.5t-6.5 104t-4.5 78q-8 72 34 114t95.5 38.5t94.5 -23.5z" />
    <glyph glyph-name="uni00AD" unicode="-" horiz-adv-x="735" 
d="M162 668q61 0 168.5 -9.5t170 -11.5t175.5 10q14 8 31.5 2t25.5 -20q-2 -20 2 -32.5t-8 -26t-16 -20.5t-21.5 -15l-25 -11.5t-24.5 -9.5t-22 -8q-260 -74 -534 0q-16 4 -25.5 10t-10.5 12l-1 5q-8 49 28 87t87 38z" />
    <glyph glyph-name="uni00AD" unicode="&#xad;" horiz-adv-x="735" 
d="M162 668q61 0 168.5 -9.5t170 -11.5t175.5 10q14 8 31.5 2t25.5 -20q-2 -20 2 -32.5t-8 -26t-16 -20.5t-21.5 -15l-25 -11.5t-24.5 -9.5t-22 -8q-260 -74 -534 0q-16 4 -25.5 10t-10.5 12l-1 5q-8 49 28 87t87 38z" />
    <glyph glyph-name="period" unicode="." horiz-adv-x="325" 
d="M283 295q45 -29 44 -129t-63 -137q-78 -43 -136 6t-67 131q-6 55 16.5 92t59.5 50.5t78 9t68 -22.5z" />
    <glyph glyph-name="slash" unicode="/" horiz-adv-x="784" 
d="M373 889q20 39 54 121t57.5 131t70.5 98t107 64q59 16 101 -23t7 -102l-144.5 -250l-160.5 -283t-128 -252.5t-120 -292.5q-8 -37 -28.5 -55t-67.5 -39q-51 -23 -90 5t-29 75q23 104 68 218t86 191.5l112.5 204t104.5 189.5z" />
    <glyph glyph-name="zero" unicode="0" horiz-adv-x="890" 
d="M676 193q-88 -88 -187.5 -116t-203.5 25q-211 125 -242 371q-23 195 120.5 357.5t340.5 195.5q80 14 162 -27t139 -114q84 -106 84 -238.5t-58.5 -245t-154.5 -208.5zM569 373q150 207 74 329q-53 88 -121 89q-88 0 -159.5 -70t-81.5 -156q-10 -80 27.5 -153.5
t109.5 -104.5q75 -45 151 66z" />
    <glyph glyph-name="one" unicode="1" horiz-adv-x="335" 
d="M215 -2q-80 0 -113 68q-45 115 -45 245.5t22.5 293.5t22.5 253q0 43 46.5 89t99.5 22q94 -43 78 -123q-61 -317 -43 -647q4 -16 33.5 -58.5t9.5 -74.5q-4 -4 -13.5 -14.5t-13.5 -14.5t-13.5 -12.5t-15.5 -11.5t-15 -7t-18.5 -6t-21.5 -2z" />
    <glyph glyph-name="two" unicode="2" horiz-adv-x="858" 
d="M141 63q-57 8 -65 71t18 97q53 96 202.5 231.5t192.5 188.5q8 6 1 18.5t-10 16.5t-14 14l-11 11q-25 12 -79 13t-79 11q-51 25 -107.5 -9t-111.5 -3q-61 47 -37 168q12 37 42 54.5t56.5 17.5t68.5 -5.5t54 -5.5q229 0 336 -61q6 -4 24.5 -14.5l27.5 -15.5t28.5 -17.5
t27 -19.5t21.5 -22.5t14 -26.5t5.5 -29.5t-5.5 -34.5q-37 -113 -120.5 -205t-214.5 -191l-14.5 -15t-14.5 -18.5t-4 -18.5t20 -7q92 -14 152.5 -17t106.5 -10.5t153 -33.5q12 0 29.5 -15.5t17.5 -32.5q8 -45 -18.5 -83.5t-65.5 -49.5q-113 -12 -190.5 -12t-116.5 5
t-138.5 24.5t-181.5 31.5z" />
    <glyph glyph-name="three" unicode="3" horiz-adv-x="692" 
d="M512 145q-104 -51 -223 -47t-219 58q-49 33 -30 86t71 67q49 16 156.5 -7t160.5 -3q21 0 39 20q7 7 2 11q-20 53 -91 93t-137.5 59.5t-107.5 64.5t-12 110q25 41 117 86t108 58q-35 20 -109.5 20t-105.5 21q-53 47 -20.5 110.5t102.5 63.5q12 -2 55 -5t60.5 -5t54.5 -7.5
t58.5 -11.5t50 -17.5t51.5 -25.5q45 -29 56 -63.5t-11.5 -71.5t-49 -65.5t-70.5 -68.5t-60 -59q10 -6 25.5 -26.5t25.5 -24.5q82 -16 144.5 -61t82.5 -113q41 -137 -174 -246z" />
    <glyph glyph-name="four" unicode="4" horiz-adv-x="753" 
d="M334 295q-92 0 -169 47t-99 119q-53 117 -6.5 272.5t161.5 233.5q33 20 64.5 3.5t38.5 -44.5q16 -59 -33 -174t-29 -179q16 -53 87 -82.5t110 1.5q47 37 66.5 118.5t21.5 155.5t36.5 137.5t112.5 73.5q49 -35 56.5 -91.5t-13 -108.5t-40 -120.5t-13.5 -113.5q4 -20 5 -40
t-2 -34t-10 -32.5t-12 -30t-16.5 -31t-15.5 -29.5q-20 -53 -28.5 -83t-14.5 -86t12 -89q4 -14 -8 -26.5t-34.5 -25.5t-31.5 -22q-57 -43 -112 33q-25 27 -13.5 115t3.5 123q0 14 -10.5 16t-32 -2t-31.5 -4z" />
    <glyph glyph-name="five" unicode="5" horiz-adv-x="811" 
d="M743 897q27 0 46.5 -17.5t19.5 -39.5q8 -41 -22.5 -74t-63.5 -33q-322 59 -414 -125q41 -18 138.5 -36.5t140.5 -39.5q80 -20 106 -77q59 -72 11 -164q-80 -141 -218.5 -222t-291.5 -67q-61 6 -78 64.5t10 109.5q23 31 34 44t34.5 27.5t46.5 4.5q10 0 20 -28.5t19 -28.5
q147 -37 270 145q-55 59 -141 73.5t-193.5 14.5t-167.5 16q-16 8 -24.5 41t6.5 56q16 16 44.5 40.5l41.5 36.5q23 27 65.5 91.5t77.5 101.5t78 57q31 16 90 23.5t84 15.5q49 12 76.5 10t76.5 -11t78 -9z" />
    <glyph glyph-name="six" unicode="6" horiz-adv-x="786" 
d="M477 6q-154 -25 -275.5 54t-158.5 216q-63 244 86.5 471.5t402.5 288.5q88 21 137 -24q36 -34 -3 -58q-7 -4 -17 -8q-465 -223 -442 -551q25 4 123 29t142 31t120 -6.5t139 -53.5q47 -37 44 -107.5t-44 -109.5q-104 -152 -254 -172zM481 162q35 8 48.5 12t28.5 15.5
t18.5 29t-1.5 47.5q-6 49 -111 44q-7 -1 -11 -1q-63 -6 -103.5 -32.5t-27.5 -73.5q18 -78 159 -41z" />
    <glyph glyph-name="seven" unicode="7" horiz-adv-x="821" 
d="M522 1026q166 51 283 -20q10 -10 14 -20.5t3 -23t-3 -20.5t-7 -23.5t-7 -19.5l-74 -153.5t-79.5 -168t-56.5 -155.5t-32 -174q0 -4 5 -18.5t7.5 -24.5t-2.5 -19q-35 -53 -92 -85.5t-86 1.5q-41 66 -44 140.5t24.5 150.5t62.5 145.5l76 153.5t59 146q-98 0 -264 -50.5
t-196 -56.5q-43 -8 -80 32t-15 85q10 29 36 61.5t48 32.5q152 0 420 84z" />
    <glyph glyph-name="eight" unicode="8" horiz-adv-x="886" 
d="M348 14q-209 -35 -328 33q8 90 57.5 158.5t157 159t130.5 112.5q-25 33 -76 78l-87 79t-61.5 86t-15.5 107q203 152 582 105q8 61 41.5 102t87.5 35q35 0 47 -44t-4 -77q-53 -203 -275 -420q131 -131 129 -258q-2 -63 -39 -111t-100.5 -76t-118.5 -42.5t-127 -26.5z
M518 231q29 37 27 69t-25.5 50.5t-48.5 5.5q-31 -10 -51.5 -20t-32.5 -16.5t-24.5 -21.5t-18.5 -23.5t-21.5 -37t-27.5 -47.5q51 -37 118.5 -22.5t104.5 63.5zM465 621q53 20 84 71t0 82q-25 29 -57.5 30t-54 -8.5t-72.5 -37.5q-20 -18 -9 -53t45.5 -64.5t63.5 -19.5z" />
    <glyph glyph-name="nine" unicode="9" horiz-adv-x="622" 
d="M43 614q-31 109 20.5 204t155.5 149q37 18 101.5 29.5t133 12.5t119 -28t50.5 -86q-16 -135 -87 -400.5t-90 -406.5q0 -18 -11 -33.5t-21.5 -22.5t-35 -18.5t-28.5 -13.5q-31 -6 -72.5 15.5t-35.5 52.5q11 66 92 362q22 86 14 86q-104 -61 -186 -44t-119 142zM317 676
q31 18 82.5 85.5t22.5 82.5q-66 25 -134.5 -20.5t-76.5 -112.5q-2 -43 32.5 -52.5t73.5 17.5z" />
    <glyph glyph-name="colon" unicode=":" horiz-adv-x="325" 
d="M283 295q45 -29 43 -129t-62 -137q-78 -43 -136 6t-69 131q-8 72 34 114t95.5 38.5t94.5 -23.5zM283 903q45 -27 42 -116t-65 -125q-86 -39 -138 -2.5t-63 116.5q-8 72 34 114t95.5 37.5t94.5 -24.5z" />
    <glyph glyph-name="semicolon" unicode=";" horiz-adv-x="321" 
d="M281 295q43 -31 -5.5 -233.5t-111.5 -239.5q-33 -18 -53.5 0t-29.5 66.5t-13.5 95.5t-6.5 104t-4 78q-8 72 34 114t95.5 38.5t94.5 -23.5zM281 903q45 -27 41.5 -116t-64.5 -125q-86 -39 -138 -2.5t-63 116.5q-8 72 34 114t95.5 37.5t94.5 -24.5z" />
    <glyph glyph-name="less" unicode="&#x3c;" horiz-adv-x="935" 
d="M741 1112q66 0 94.5 -44t-6.5 -81q-59 -66 -170.5 -112t-214 -95t-155.5 -131q86 -51 187.5 -99l227 -102.5t193.5 -87.5q39 -23 39 -59q6 -63 -58.5 -100t-125.5 -15q-14 10 -37 32t-31 26q-250 139 -578 280q-8 4 -35.5 13.5t-47 23.5t-23.5 39q0 90 78 164
q94 76 309 172t307 176q4 4 11.5 4t18.5 -2t17 -2z" />
    <glyph glyph-name="equal" unicode="=" horiz-adv-x="561" 
d="M479 924q57 10 78 -43q27 -80 -78 -109q-197 -72 -368 -10q-27 10 -48.5 43t-5.5 55q33 63 100.5 73.5t169 -2.5t152.5 -7zM340 537q23 -18 79 11.5t83 -1.5q8 -4 13 0t7 11t5 11t8 0q31 -33 21.5 -67.5t-44.5 -50.5q-59 -61 -146 -85t-172 5.5t-126 111.5
q-14 45 19.5 83t78.5 46q76 1 174 -75z" />
    <glyph glyph-name="greater" unicode="&#x3e;" horiz-adv-x="792" 
d="M348 1044q254 -84 410 -231q33 -25 33 -56.5t-21.5 -56t-56.5 -47.5q-94 -59 -272.5 -202.5t-286.5 -206.5q-55 -31 -97.5 14t-1.5 92q25 41 115 90q61 31 159.5 110t135.5 103q6 4 23.5 12.5t26.5 13.5t23.5 14t14.5 15.5v16.5q-39 68 -113.5 107.5t-147.5 52t-154 45.5
t-128 88q-14 20 16.5 59t63.5 39q41 8 84 -3t98.5 -37t75.5 -32z" />
    <glyph glyph-name="question" unicode="?" horiz-adv-x="675" 
d="M197 326q-84 57 -121 161.5t-8 196.5q18 55 72.5 96t111.5 62.5t116.5 65.5t86.5 104q-66 35 -205 79t-203 78q-35 16 -26.5 61.5t47.5 67.5q102 20 149 0q37 -14 131 -46.5t160.5 -64.5t126.5 -77q53 -53 39 -80q-20 -82 -91 -145.5t-159 -124t-127 -117.5
q-27 -39 -8.5 -104.5t37 -112.5t-20.5 -100q-14 -14 -49.5 -14t-58.5 14zM127 158q29 18 119 18q43 -6 60.5 -39t-1.5 -69q-20 -45 -79.5 -61.5t-98.5 11.5q-43 31 -44 70t44 70z" />
    <glyph glyph-name="at" unicode="@" horiz-adv-x="1028" 
d="M340 29q-20 8 -42 18t-37 19.5t-35.5 26t-32 24.5t-33 28.5l-28.5 27.5l-31.5 31.5l-28.5 28.5q-14 23 -37 99q-25 106 0 196q129 451 348 670q137 137 358 107q90 -12 155 -65.5t92.5 -128.5t38.5 -161t-9 -162q-10 -47 -46 -76.5t-86 -54t-73 -47.5q-20 -16 -31.5 -90
t-23.5 -98q-31 -72 -108 -123t-164 -51t-138 67q-49 68 -18 205q35 154 113.5 264.5t199.5 110.5q31 0 63.5 -23.5t51 -45t52.5 -67.5l11 -16q16 -14 29.5 -1.5t23.5 36.5q49 139 -26 305q-45 96 -157.5 102.5t-182.5 -67.5q-254 -254 -303 -678q-12 -106 59.5 -187
t181.5 -126q66 -27 125 8q6 -8 13.5 -11t15.5 -1t17.5 5t15.5 6t11 3t7 -3t0 -15q-4 -68 -59 -96.5t-122 -23.5t-130 30zM500 483q-8 -70 18 -88q20 -20 41 -8t31 25.5t16 27.5q82 145 19 258q-115 -98 -125 -215z" />
    <glyph glyph-name="A" unicode="A" 
d="M248 907q10 33 39.5 171.5t72.5 197.5q16 25 68.5 33t69.5 -23q39 -82 71.5 -181t50 -174l46 -197t45.5 -187q0 -14 27.5 -28.5t35.5 -26.5q20 -35 0 -56q-35 -76 10 -200.5t37 -178.5q-6 -43 -66.5 -54t-90.5 28q-29 39 -46.5 155.5t-72.5 149.5q-57 33 -135 23.5
t-134 -52.5q-25 -18 -41 -66t-23 -94.5t-26.5 -89.5t-51.5 -52t-97 15q-12 57 -1 119t38.5 140.5t36.5 119.5q63 289 137 508zM360 723q-4 -27 -18 -67t-25.5 -65.5t-13.5 -54t19 -34.5q35 -25 108.5 -21t85.5 47q8 31 8 67t-2 59.5t-18.5 68.5l-21.5 58.5t-30.5 67.5
t-27.5 58q-48 -57 -64 -184z" />
    <glyph glyph-name="B" unicode="B" horiz-adv-x="813" 
d="M160 915q-10 43 -2 84t3 83t-36 61q-8 6 -39 9t-41 17q-29 47 4 93.5t66 46.5q20 0 72.5 1t81 1t71.5 -4t77 -14.5t64 -26.5q18 -10 133 -51t156 -99q18 -37 8 -61l-78 -68l-94 -80t-90 -61q-14 0 -29 -19q-10 -12 5 -16q115 -23 201.5 -78t111.5 -139q43 -150 -139 -332
q-119 -119 -223.5 -187.5t-221.5 -74.5q-33 -2 -60.5 20.5t-10.5 57.5q8 16 39.5 47t31.5 41q4 39 4 81t-2 74.5t-9 82t-11 75t-13.5 81.5t-13.5 77q-2 14 -12 39.5t-16.5 44t-5.5 44.5t18 46q18 22 0 104zM334 1047q-2 -16 5 -51t3 -54q63 -6 116.5 30t67.5 83
q8 16 -9 27.5t-55 23.5t-50 18q-35 18 -52.5 -7t-25.5 -70zM385 444q2 -16 7 -63t11.5 -78t18.5 -59l57 46t63.5 54t44 50t35 68t-0.5 70q-8 43 -59.5 81t-103.5 46.5t-89 -22.5q-10 -35 -9.5 -53.5t12 -67.5t13.5 -72z" />
    <glyph glyph-name="C" unicode="C" horiz-adv-x="921" 
d="M25 526q25 170 115.5 294t250.5 161q125 29 297 -20q37 -12 63.5 -46t4.5 -73q-12 -23 -30.5 -33t-51.5 -16.5t-45 -10.5q-41 -12 -117 4.5t-106 6.5q-117 -41 -158 -159t-2 -243t157.5 -183t243.5 -18q18 6 49 26t53.5 33t52 21.5t46.5 -8.5q55 -45 68.5 -88t-33.5 -84
q-199 -145 -512 -49q-154 49 -228 109q-151 126 -118 376z" />
    <glyph glyph-name="D" unicode="D" horiz-adv-x="778" 
d="M158 104q-41 14 -70 53.5t-16 75.5q6 8 36.5 32t32.5 44q6 244 -45 715q0 10 -9 23.5t-22.5 29t-19.5 25.5q-4 4 -4 12t2 18.5t2 12.5q10 47 53 62.5t86 6.5q143 0 250 -69q152 -102 262 -252q98 -141 80 -289.5t-112.5 -273.5t-229.5 -191q-153 -80 -276 -35zM324 274
q53 -10 106 25t84 82q25 37 38 60.5t31.5 61.5t25.5 66.5t7 64.5t-12 68q-37 106 -123 192.5t-196 98.5q0 -96 13.5 -407.5t25.5 -311.5z" />
    <glyph glyph-name="E" unicode="E" horiz-adv-x="735" 
d="M78 780q0 31 -12.5 93.5t-12.5 109.5t25 82q86 125 258 140.5t299 -85.5q29 -20 6 -58t-72 -46q-35 -4 -122 18.5t-134 1.5q-45 -20 -52 -75.5t4 -109.5t-9 -108q39 -23 99.5 -23.5t107.5 6.5t93 -12.5t69 -74.5q-33 -57 -100.5 -67.5t-138.5 -12.5t-101 -35
q-23 -25 -31 -67.5t-7 -71.5t9 -96.5l10 -83.5q68 -12 138.5 6t155.5 56t132 50q6 6 37 -18q14 -49 -4 -88t-61 -55q-37 -12 -108 -41t-114 -44.5t-105.5 -27.5t-117.5 -10q-14 2 -48 3t-52.5 8t-22.5 28q-25 78 -17.5 226t-10.5 226q-2 10 -17.5 33t-18.5 35t7 37q0 4 5 9
t12 10t12 9q6 14 9 32t3 30t-1 32.5t-1 28.5z" />
    <glyph glyph-name="F" unicode="F" horiz-adv-x="712" 
d="M115 842q-57 225 -47 375q0 16 12 35.5t24 19.5q139 49 294 36.5t286 -83.5q80 -41 -45 -121q-68 -31 -181.5 16t-166.5 39q-4 -68 -6 -106.5t10 -105t21.5 -105.5l25.5 -104.5l25 -102.5q25 -2 72.5 3t89.5 8t82 1t63.5 -22.5t21.5 -61.5q-2 -43 -62.5 -53t-129 -15.5
t-82.5 -35.5q-20 -31 -11 -81t25.5 -85l40 -86t31.5 -86q16 -47 -13.5 -82t-72.5 -37t-74 16q-57 57 -88 210t-80 210q-10 10 -21.5 7t-35 -7t-37.5 0q-31 8 -48.5 32t1.5 54q12 16 59 44t54 48q8 18 4 56.5t-9.5 57l-16.5 56.5t-15 56z" />
    <glyph glyph-name="G" unicode="G" horiz-adv-x="806" 
d="M57 270q-45 236 6.5 438.5t229.5 327.5q115 78 239.5 76t231.5 -76q31 -25 22.5 -53.5t-41.5 -44.5q-43 -29 -147 -8.5t-147 8.5q-41 -10 -75 -48t-49.5 -71t-33.5 -86q-41 -109 -54.5 -210t20.5 -203.5t132 -147.5q35 -16 74 -8t53 37q51 98 48 132q-2 29 -27 46
q-59 31 -60 39q-33 51 7 86t102 51q88 27 168 -20.5t39 -137.5q0 -4 -20.5 -13t-20.5 -15q0 -41 -18.5 -111t-20.5 -86q-4 -29 -43 -64.5t-45 -44.5q-23 -16 -68 -23t-59 -15q-139 -59 -276.5 15t-166.5 230z" />
    <glyph glyph-name="H" unicode="H" horiz-adv-x="802" 
d="M66 539q-2 12 -10.5 43.5t-6.5 44.5q2 14 12.5 52t14.5 58q2 45 -6.5 151.5t-2 181.5t41.5 136q20 35 75.5 41t106.5 -18q55 -47 49 -92q-6 -35 -23.5 -101.5t-26.5 -109.5t-7 -97.5t24 -95.5q23 -31 96.5 -43t90.5 23q31 84 27.5 239.5t6.5 249.5q8 47 52.5 67.5
t88.5 12.5t56 -37q31 -115 29 -184.5t-15.5 -192.5t-9.5 -192q2 -14 33 -48t35 -57q2 -18 -19.5 -39.5t-23.5 -27.5q-20 -102 14.5 -295t34.5 -260q-80 -16 -131 13.5t-74 97t-34 138l-23.5 157.5t-30.5 134q-14 41 -59 53.5t-86 3.5t-50 -26q-45 -47 -15 -221t3 -250
q-78 -2 -127 30t-68.5 92t-25.5 116.5t-8 135.5t-8 116z" />
    <glyph glyph-name="I" unicode="I" horiz-adv-x="329" 
d="M59 354q0 53 -2 173t-2 189.5t6.5 172t20.5 190.5q12 82 79.5 105.5t143.5 -27.5q35 -35 23 -59q-51 -145 -59.5 -309t5 -372t9.5 -311q-2 -23 -47.5 -30.5t-85.5 12.5q-16 8 -30 18.5t-23 24.5l-16 25.5t-11 31t-6.5 30.5t-3.5 36t-1 33v34.5v32.5z" />
    <glyph glyph-name="J" unicode="J" horiz-adv-x="784" 
d="M33 424q0 129 28 178q63 66 150 49q45 -8 56.5 -57t-17.5 -100q-16 -31 -21.5 -78t14 -95.5t66.5 -64.5q43 -18 94.5 -6t63.5 55q23 66 28 137.5t-0.5 128t-25.5 137t-35.5 127t-48.5 136.5t-45 127q-14 41 8 80q14 27 65.5 34t63.5 25q12 -12 51 -20.5t39 -28.5
q10 -82 39 -188.5l54.5 -193.5t44 -182.5t13.5 -189.5t-42 -178q-94 -215 -475 -150q-57 10 -93 41t-51.5 82.5t-19.5 92.5t-4 102z" />
    <glyph glyph-name="K" unicode="K" horiz-adv-x="714" 
d="M70 496q-39 291 -39 721q0 35 40 63.5t85 30.5q59 2 81.5 -35t15.5 -90t-7 -110.5t12 -96.5q18 -41 96 29q33 20 95.5 82.5t103.5 78.5q41 14 93 -23.5t38 -72.5q-47 -82 -194.5 -165t-184.5 -117q-12 -12 7.5 -47t56.5 -82.5t45 -61.5q20 -23 106 -103.5t131 -140
t62 -125.5q6 -23 -27 -47t-75 -28t-79 20q-49 41 -155.5 179.5l-112.5 146.5q-23 -113 55 -416q8 -27 6.5 -70t-14.5 -61q-20 -43 -60 -54.5t-83 11.5q-16 6 -31.5 25.5t-15.5 39.5q0 126 -51 519z" />
    <glyph glyph-name="L" unicode="L" horiz-adv-x="880" 
d="M41 373q0 422 80 860q12 61 100 71.5t98 -57.5q18 -111 5 -252t-36.5 -253.5t-32.5 -257t19 -259.5q102 0 143.5 1t125.5 13.5t137 39.5q72 51 127 24q98 -98 70 -129q-63 -74 -164 -102.5t-193 -23.5t-209.5 -3t-199.5 -45q-45 29 -64.5 77t-19.5 89t7 108.5t7 98.5z
" />
    <glyph glyph-name="M" unicode="M" horiz-adv-x="1232" 
d="M1141 0q-84 -16 -101 0q-59 117 -83.5 276.5t-45 322.5t-69.5 278q-43 -70 -92.5 -214.5t-77.5 -203.5q-4 -10 0 -35t0 -35q-25 -49 -73 -75.5t-97 -4.5q-31 8 -55.5 35t-24.5 55q-23 205 -90 230q-23 8 -26 -17.5t2 -60.5t-5 -62q-18 -27 -12 -130t2 -130
q-8 -57 -96 -73.5t-123 24.5q-39 41 -44 102.5t9 115t35.5 129t27.5 120.5q14 100 31 300t31 300q8 57 83 63.5t95 -34.5q49 -68 79 -151t56.5 -196.5t44.5 -170.5l12 -13q11 -12 17 -17t10 -1q29 41 57.5 108.5t48 127t50.5 121t63.5 102.5t87 59.5t123.5 1.5
q66 -190 123 -576t117 -571q12 -35 -17.5 -63.5t-72.5 -36.5z" />
    <glyph glyph-name="N" unicode="N" horiz-adv-x="694" 
d="M63 131q-16 18 -16 43q12 96 23.5 381t44.5 442q6 29 59 29t74 -20q63 -84 130.5 -282t131.5 -282q14 39 18 77t1 99.5t-3 75.5q0 66 -36.5 228.5t-22.5 251.5q6 43 71.5 49t79.5 -33q35 -92 53.5 -211t20.5 -195.5t2 -220.5v-45q0 -211 -84 -295q-27 -31 -76 -34t-75 26
q-29 33 -57.5 78t-46 77.5l-47 91t-42.5 81.5q-27 -72 -22.5 -202t-12.5 -202q-10 -39 -69.5 -44t-98.5 36z" />
    <glyph glyph-name="O" unicode="O" horiz-adv-x="827" 
d="M55 582q41 143 159 255.5t258 127t267 -137.5q117 -158 80 -346t-192 -293q-102 -70 -211 -72.5t-203 62.5q-96 72 -142.5 180.5t-15.5 223.5zM268 457q20 -92 72.5 -147.5t130.5 -20.5q96 45 134 146.5t11 211.5q-14 55 -79.5 79t-122.5 11q-49 -8 -102.5 -118.5
t-43.5 -161.5z" />
    <glyph glyph-name="P" unicode="P" horiz-adv-x="972" 
d="M63 844q12 160 45 221q5 10 11 18q-10 4 -38 10.5t-40 12.5q-31 35 -19.5 85t41.5 62q236 94 488 36t420 -251q6 -57 -2 -109t-23.5 -93t-51.5 -82t-64.5 -69t-84 -60.5l-87 -51t-98 -45l-95.5 -38t-98.5 -36l-87.5 -30.5q-6 -53 14 -158.5t8 -159.5q-18 -53 -73.5 -85.5
t-118.5 -16.5q-10 6 -46 47q-41 320 0 793zM289 891q0 -25 -12.5 -85.5t-9.5 -96t34 -45.5q119 -41 263.5 52t178.5 230q-86 66 -145 102.5t-149.5 62.5t-169.5 5q-4 0 6 -9t24.5 -26.5t14.5 -31.5q0 -29 -17.5 -80t-17.5 -78z" />
    <glyph glyph-name="Q" unicode="Q" horiz-adv-x="866" 
d="M258 371q-123 111 -170 178q-20 31 -49 149q-35 135 70 312q27 35 63.5 64.5t88.5 62t77 51.5q23 23 55.5 38t77.5 28.5t68 23.5q117 57 178 10q45 -31 49 -85t-57 -64q57 -111 92 -201t57.5 -201.5t-5.5 -213t-105 -183.5q51 -149 46 -214q-2 -36 -16 -67
q-8 -31 -44 -49t-66 0q-45 33 -60.5 130.5t-50.5 119.5q-33 18 -140.5 42t-158.5 69zM348 520q79 -83 120 -77q16 2 30 16q12 10 10 19t-11.5 29.5t-9.5 31.5q0 27 2.5 41t13.5 32.5t36 26.5q23 14 50 4t41.5 -21.5t39.5 -34.5q6 -6 8 -7q37 133 -13.5 267t-156.5 202
q-61 39 -131 -6.5t-112 -132.5t-36 -160q8 -119 119 -230z" />
    <glyph glyph-name="R" unicode="R" horiz-adv-x="839" 
d="M47 666q0 51 39 205.5t10 228.5q-2 6 -8 29.5t-7 36t-2 30.5t6 30.5t21 20.5q188 104 391 35.5t318 -252.5q96 -152 -197 -344q68 -360 197 -610q14 -29 -13.5 -51.5t-66.5 -24.5t-67 16q-76 63 -113 172t-68.5 225.5t-93.5 184.5q-20 25 -77.5 21.5t-71.5 -31.5
q-29 -92 9 -267.5t40 -216.5q2 -29 -45 -48t-92 -11q-37 12 -60 59q-25 63 -36 145.5t-14 123.5t-1 161t2 132zM285 932q-2 -4 -12.5 -31t-13.5 -39t-6 -32.5t2 -31t19 -14.5q88 -20 182.5 4.5t161.5 83.5q23 10 38.5 31t0.5 39q-74 154 -295 178q-35 4 -49 -27.5t-19 -88
t-9 -72.5z" />
    <glyph glyph-name="S" unicode="S" horiz-adv-x="903" 
d="M92 862q-10 14 -28.5 33.5t-28.5 32t-18.5 29t-5.5 30.5t16 31q51 63 117.5 108t147.5 72t149.5 43t167 34.5t155.5 33.5q41 10 80 -11.5t53 -56.5q16 -37 -15.5 -68.5t-72.5 -42.5q-66 -25 -227.5 -47t-241.5 -65q-47 -27 -35 -55q39 -57 104.5 -117t129 -100.5t132 -95
t109.5 -102.5t64.5 -119t-2.5 -148q-29 -104 -116 -173t-197.5 -92.5t-230.5 -13.5t-216 55q-80 41 -53.5 125t108.5 121q33 6 58.5 -35t42.5 -45q12 -2 60 -6t75 -16q33 -14 69.5 -13.5t54 6t66.5 28t55 24.5q66 51 23 135q-78 100 -273.5 239.5t-275.5 241.5z" />
    <glyph glyph-name="T" unicode="T" horiz-adv-x="884" 
d="M362 4q-33 -12 -55 10.5t-24 48.5q-10 184 24.5 527.5t34.5 490.5q0 14 -7 20.5t-20.5 4.5t-23.5 -6l-26.5 -10.5t-22.5 -8.5q-12 -2 -83 -33.5t-106 -15.5q-51 23 -47 78t57 82q111 55 208.5 81.5t178 29t182 2.5t218.5 4q4 0 9 -7.5l11.5 -17.5t8.5 -14
q14 -43 -12.5 -79t-75.5 -52q-82 -16 -115 -16.5t-105 -2.5q-74 -360 -90 -1016q0 -51 -119 -100z" />
    <glyph glyph-name="U" unicode="U" horiz-adv-x="983" 
d="M238 145q-109 115 -157 271.5t-40 311.5t57 316q18 57 80 86t123 0q43 -47 31 -96q-55 -127 -69.5 -273.5t31.5 -284.5t155 -204q66 -35 116.5 -20.5t88.5 70t60.5 119t30.5 128.5q18 117 16.5 180.5t-14 179t-12.5 179.5q-8 62 94 94q21 7 86 23q0 -16 20.5 -24.5
t20.5 -16.5q25 -178 28 -310.5t-33 -289t-122 -281.5q-66 -94 -172 -160.5t-219.5 -76t-199.5 78.5z" />
    <glyph glyph-name="V" unicode="V" horiz-adv-x="833" 
d="M438 0q-72 0 -80 31q-18 63 -77.5 159.5t-73.5 141.5q-20 63 -76.5 195t-84.5 235.5t-19 202.5q6 27 44 57.5t76.5 35.5t59.5 -32q31 -68 85 -289t128 -325q66 145 125 436t96 399q10 31 60.5 51.5t94.5 7t35 -68.5q-43 -289 -180 -784q-47 -158 -82 -383
q-8 -29 -46 -49.5t-85 -20.5z" />
    <glyph glyph-name="W" unicode="W" horiz-adv-x="1247" 
d="M227 121q-127 172 -170 393t-2 442q18 61 86 90t107 -24q33 -51 33 -124t-13.5 -134.5t2.5 -138.5q6 -25 13.5 -71t13.5 -72.5t21.5 -62.5t37.5 -63q55 61 111.5 207t101.5 201q53 63 108.5 64t100.5 -49t79 -111.5t56 -128.5q0 -10 8.5 -27.5t18.5 -29t16 -7.5
q51 61 65.5 145.5t2.5 159t-15 164.5t11 164q16 33 66.5 54.5t82.5 -1.5q41 -33 59.5 -86t18.5 -94t-6 -112.5t-6 -104.5q0 -193 -86 -418q-53 -100 -86 -127q-43 -35 -84 -38t-75 20.5t-60.5 57.5t-48.5 77q-78 154 -129 225q-29 -39 -64 -112.5l-65.5 -132t-71.5 -114
t-101.5 -77.5t-136.5 -4z" />
    <glyph glyph-name="X" unicode="X" horiz-adv-x="1017" 
d="M37 244q-23 6 -27 37.5t6 46.5q47 49 136.5 107.5t161 116.5t108.5 130q-66 78 -172.5 235.5t-169.5 233.5q-37 45 -8.5 92t81 60.5t87.5 -3.5q72 -51 130 -130.5t120.5 -188.5t101.5 -162q43 27 107.5 101.5t107.5 101.5q100 51 180 12q29 -29 12 -65
q-35 -68 -148.5 -157t-150.5 -142l101.5 -167l120 -200t88.5 -166q8 -16 9 -29.5t-6 -25.5t-13.5 -21.5t-22.5 -20.5l-24.5 -16.5t-28.5 -15.5q-31 -16 -66 -3t-51 46q-74 190 -279 459q-47 -27 -114.5 -84l-116.5 -102t-119.5 -71.5t-140.5 -8.5z" />
    <glyph glyph-name="Y" unicode="Y" horiz-adv-x="739" 
d="M188 -125q-35 14 -41 55t5 74q8 53 68.5 240.5t49.5 273.5q-14 109 -123.5 348.5t-123.5 356.5q-6 47 58 76.5t97 -1.5q49 -43 78 -140t56.5 -200.5t68.5 -152.5q33 43 85 224t120 231q33 25 73.5 24.5t65.5 -23t10 -57.5q-168 -416 -233 -557q-29 -86 26 -158
q18 -18 -8 -83q-10 -8 -51 -22.5t-51 -41.5q-80 -367 -99 -430q-8 -25 -44 -40t-87 3z" />
    <glyph glyph-name="Z" unicode="Z" horiz-adv-x="1101" 
d="M264 10q-16 0 -63 -5t-74 -5t-56.5 19.5t-41.5 60.5q0 61 69 106q20 18 83 70.5t87.5 75l79.5 72t82 79l71 77.5t67.5 87l52 87t45 98.5t26.5 101.5q4 27 -22.5 38t-74.5 17t-69 17q-80 33 -259 22.5t-238 34.5q-49 35 -12.5 94.5t94.5 71.5q68 16 137 19t146 -7
t132.5 -20.5t146.5 -32t136 -29.5q154 -53 143 -143q-14 -115 -76.5 -234.5t-123 -191.5t-177 -195t-157.5 -172q143 -16 312 3.5t310 -15.5q51 -16 59.5 -63.5t-23.5 -87.5t-83 -40q-170 0 -363.5 -5t-365.5 -5z" />
    <glyph glyph-name="bracketleft" unicode="[" horiz-adv-x="1067" 
d="M1026 1200q47 -27 40 -63.5t-50 -68.5t-82 -30q-74 2 -240 30t-258 28q-29 -319 -151 -787q0 -6 -1 -21.5t-1 -23.5t2 -19.5t8 -18.5t16 -9q236 -35 463 35q45 6 57.5 -45t-0.5 -94q-6 -14 -17 -24.5t-28.5 -19t-26.5 -11.5t-32 -9l-23 -6q-389 -104 -659 45
q-4 0 -8 12.5t-10.5 29.5t-16.5 28q45 49 45 82q74 240 127 555q12 72 -3 220t3 220q123 61 276.5 72.5t295 -18.5t274.5 -89z" />
    <glyph glyph-name="backslash" unicode="\" horiz-adv-x="845" 
d="M635 428q8 -14 91 -135t108 -184q27 -70 -4 -97.5t-83.5 -13.5t-80.5 51q-86 102 -153 192.5t-138.5 213.5l-101 177t-120 233l-116.5 231q-43 63 -36 121.5t75 78.5q16 0 36.5 5.5t33 7.5t24.5 1t18.5 -10.5t8.5 -27.5q27 -90 61.5 -175t89.5 -186.5l84 -151.5t108 -177
z" />
    <glyph glyph-name="bracketright" unicode="]" horiz-adv-x="907" 
d="M643 1276q53 6 102.5 6t98.5 -12.5t58 -45t-17 -87.5q-184 -305 -92 -818q4 -10 15 -40.5t15 -47t8.5 -42t-3 -47t-23.5 -40.5q-35 -35 -70 -34q-57 -6 -152.5 -27t-160 -33t-147 -9t-150.5 34q-63 35 -51 84t63 76q55 31 195.5 26.5t195.5 32.5q25 14 26 48t-12.5 85
t-13.5 74q-4 100 30 310t28 323q-86 -6 -251 2t-210 8q-35 0 -68.5 37t-33.5 78q6 47 49 68.5t88 23.5q74 4 235.5 -20.5t247.5 -12.5z" />
    <glyph glyph-name="asciicircum" unicode="^" horiz-adv-x="636" 
d="M383 1311q29 0 41 -6q20 -27 115.5 -244t97.5 -234q-8 0 -19.5 -16t-21.5 -12q-8 4 -34.5 7t-48 7t-24.5 10q-55 137 -124 232q-16 -33 -32 -57.5t-37.5 -50l-30.5 -36t-44 -45.5l-47 -47q-23 -16 -55.5 -15t-59.5 13q-43 18 -6 70l81 111.5l78 106.5t64.5 95t65.5 111
h41z" />
    <glyph glyph-name="grave" unicode="`" horiz-adv-x="337" 
d="M295 1163q4 -18 11 -43.5t12.5 -41t10.5 -36t6 -33l2 -25.5t-2 -21.5t-8 -16.5t-14.5 -12t-23.5 -6q-23 -2 -42.5 9t-29.5 23.5t-27 38.5l-127 181q-33 51 17.5 94t105.5 37q72 -9 109 -148z" />
    <glyph glyph-name="a" unicode="a" horiz-adv-x="724" 
d="M528 -43q-16 10 -33.5 42t-31.5 32l-87.5 12t-92 15.5t-78.5 21.5t-78 40.5t-55 65.5q-39 59 -31 146.5t49 140.5q47 63 110.5 101t122 50.5t109.5 13.5t84 -2l33 -3q16 20 16 71.5t-30 57.5q-31 14 -83.5 6t-74 -14t-71.5 -27.5t-77 -30.5q-53 -18 -77.5 58.5t-4.5 97.5
q78 53 184.5 79.5t212 1t148.5 -115.5q29 -59 32 -132t-10.5 -130t-30.5 -138t-21 -138q-17 -257 -59 -313q-30 -39 -75 -9zM492 205q6 29 18 71.5l19.5 69.5t6.5 65t-18 76q-33 -12 -99.5 -23t-110.5 -20.5t-81 -45.5t-39 -97q0 -41 75 -73.5t143 -34.5t86 12z" />
    <glyph glyph-name="b" unicode="b" horiz-adv-x="821" 
d="M156 6q-27 6 -54 66q-8 68 -13 263t-30 304q-2 6 -15 32.5t-17 47t0 39.5q6 10 22.5 26.5t20.5 26.5q4 45 -1.5 193.5t11.5 193.5q12 55 66.5 94t95.5 -8q39 -41 42 -98.5t-14.5 -110.5t-20.5 -116.5t23 -114.5q121 -6 224.5 -37t190.5 -101.5t122 -173.5
q33 -92 -15.5 -192t-134.5 -162q-135 -96 -256.5 -145.5t-246.5 -26.5zM305 211q121 8 223.5 75.5t98.5 170.5q-2 66 -64.5 121t-148.5 79.5t-162 14.5q0 -311 53 -461z" />
    <glyph glyph-name="c" unicode="c" horiz-adv-x="774" 
d="M29 532q33 195 170 316q4 4 33.5 30.5l38 34t37 31t40.5 31.5l40 25.5t44.5 22.5l43 13t46 8t44 -4t46.5 -14q47 -20 27 -80q-18 -55 -58 -85t-101.5 -54.5t-96.5 -48.5q-152 -117 -160 -246q-8 -115 43 -190q14 -25 39 -42.5t43.5 -24.5t55 -18.5t51.5 -17.5
q47 -18 94 8.5t94 63.5t82 39q31 2 42 -16.5t5 -47t-15 -52.5t-20 -40q-121 -184 -450 -90q-141 41 -212 167.5t-46 280.5z" />
    <glyph glyph-name="d" unicode="d" horiz-adv-x="757" 
d="M29 459q0 115 77.5 186.5t213 134t182.5 101.5q27 23 37 106.5t22 110.5q23 39 63 61.5t74 7.5q70 -35 60 -80q-154 -418 -49 -1024q0 -14 -29 -31.5t-51 -17.5q-39 -4 -61.5 26t-40 64.5t-35.5 38.5q-18 0 -58.5 -2t-63 -2t-55 7.5t-59.5 25.5q-2 2 -37 24.5t-42 27.5
t-35.5 27.5t-38 34l-29 34t-25.5 41t-13 45t-7 53.5zM236 487q12 -78 84.5 -132t150.5 -25q-10 68 5.5 185.5t15.5 158.5q-98 0 -184 -50.5t-72 -136.5z" />
    <glyph glyph-name="e" unicode="e" horiz-adv-x="694" 
d="M45 578q-4 154 96.5 248t249.5 73q123 -16 214 -118.5t89 -229.5q-18 -57 -168.5 -146.5t-171.5 -109.5q-10 -2 -25.5 -16.5t-6.5 -26.5q25 -45 61.5 -63.5t82.5 -10.5t84 22.5t89 41.5q53 -41 33.5 -110t-82.5 -79q-4 0 -45 -7t-51.5 -8t-45 -4t-53 0t-45 8t-51.5 15
q-246 111 -254 521zM268 473q184 8 221 129q33 72 -53 110t-153 3q-41 -23 -54.5 -81.5t0.5 -108.5t39 -52z" />
    <glyph glyph-name="f" unicode="f" horiz-adv-x="735" 
d="M72 840q18 166 159 299q53 51 129 83.5t151 39t138.5 -31.5t85.5 -122q4 -29 -17.5 -50.5t-47.5 -17.5q-25 2 -82.5 16.5t-81 15.5t-84.5 -11q-84 -29 -129 -91.5t-50 -139t11 -153.5t51 -151q12 2 156.5 64.5t195.5 46.5q29 -2 40.5 -30.5t-1.5 -57.5q-14 -37 -91 -68.5
l-148.5 -58.5t-75.5 -53q-10 -49 55.5 -130t75.5 -114q18 -37 -40 -59.5t-99 -6.5q-51 33 -102.5 126.5t-96.5 119.5q-6 2 -47 0t-64 4q-20 -2 -30 22.5t-6 49.5q8 14 50 38.5t40 55.5q-2 39 -26.5 167t-18.5 198z" />
    <glyph glyph-name="g" unicode="g" horiz-adv-x="669" 
d="M139 870q70 59 150 94t170 42.5t170 -35.5q49 -25 41 -62q-39 -80 -58.5 -167t-20.5 -186t3 -170t17.5 -190.5t17.5 -175.5q10 -104 -6.5 -176.5t-85.5 -111.5q-121 -70 -268.5 -15.5t-192.5 187.5q-18 55 38 84.5t87 -6.5q10 -10 56 -66.5t84 -80t87 -17.5q14 4 39 55
q18 61 12 177t-15 176.5t-30 176.5q0 3 3 17q10 45 -5 42q-5 -1 -12 -5q-133 -80 -234 -39q-61 25 -116 125q-39 86 -22 176t91 151zM270 815q-74 -63 -61 -147q20 -141 78 -142q35 -2 58.5 20.5t50 81t32.5 70.5q18 31 21.5 79t-15.5 77q-12 25 -44 19.5t-62.5 -20.5
t-57.5 -38z" />
    <glyph glyph-name="h" unicode="h" horiz-adv-x="692" 
d="M74 606q6 47 -3.5 125t-7 144.5t28.5 115.5q12 33 55 46.5t89 -5.5q27 -16 26 -84q-2 -14 -8 -74.5l-8 -82t-5 -71.5t-1 -81t7 -73t15 -79q63 113 150.5 177.5t189.5 19.5l52.5 -224.5t29.5 -193.5t4 -223q-2 -37 -60.5 -52.5t-84.5 11.5q-47 57 -52.5 145.5t-5.5 185.5
t-34 163q-127 -127 -224 -332q-12 -20 -48 -34.5t-62 -8.5q-4 2 -17.5 5t-23.5 5t-18.5 8t-8.5 15q0 223 25 452z" />
    <glyph glyph-name="i" unicode="i" horiz-adv-x="378" 
d="M86 518q0 162 37 234q20 39 67.5 52t92.5 -7q33 -14 49 -42t-4 -57q-37 -51 -41 -143t-13 -117q-18 -47 -2.5 -143t2.5 -143q0 -6 -6 -16.5t-12 -10.5q-137 -39 -162 37q-16 53 -18 111.5t4 135t6 109.5zM137 981q-23 33 -9.5 83t38.5 66q47 29 102.5 25t81.5 -43
q25 -37 1.5 -93t-56.5 -75q-35 -20 -79 -11t-79 48z" />
    <glyph glyph-name="j" unicode="j" horiz-adv-x="397" 
d="M82 1077q-51 100 10 156q43 39 102.5 39t90.5 -47q31 -43 24.5 -101.5t-47.5 -87.5q-49 -35 -100 -24.5t-80 65.5zM145 887q12 39 83 38t89 -55q4 -25 -8 -73.5t-8 -73.5q2 -57 12.5 -171t15.5 -183.5t0 -171t-26.5 -172t-72 -147.5t-126.5 -132q-74 -57 -180 -27.5
t-139 125.5q-14 41 9.5 72t64.5 43q29 8 47 -6t33.5 -44t25.5 -40q33 -16 49 -16q57 39 90 108.5t41.5 118.5t16.5 141q8 86 -11.5 222.5t-29 222.5t23.5 221z" />
    <glyph glyph-name="k" unicode="k" horiz-adv-x="774" 
d="M43 807q4 55 -7 151.5t-14.5 151.5t21.5 139q14 35 65.5 52.5t100.5 3.5q27 -27 27 -45q0 -84 -11.5 -286t-7.5 -315q4 -8 13.5 -10t21.5 0l12 2q14 10 58.5 46t67 50.5t60 31t73.5 11t73 -27.5q35 -25 21.5 -55.5t-48.5 -47.5q-14 -10 -95 -55t-118 -82
q135 -102 406 -350q37 -47 -27 -92q-27 -35 -73 -37t-66 27q-45 45 -96 89l-125 103.5l-103 83.5l-19 9q-14 1 -7 -27q-6 -41 8 -129t10 -129q-4 -37 -40 -55.5t-72.5 -14.5t-45.5 25q-47 111 -64 259t-14 244.5t15 278.5z" />
    <glyph glyph-name="l" unicode="l" horiz-adv-x="405" 
d="M117 754q2 51 -9.5 124.5t-21.5 130t-7 122t27 114.5q18 39 65.5 57.5t89.5 -1t46 -76.5q2 -10 -4 -42t-6 -40q0 -47 2 -137.5t2 -164t-4 -136.5q-4 -74 5 -212.5t2 -245t-48 -196.5q-20 -45 -68.5 -51t-91.5 20q-23 14 -32 48t2 65q27 92 37 187.5t11 240t3 193.5z" />
    <glyph glyph-name="m" unicode="m" horiz-adv-x="1241" 
d="M39 606q-14 119 30 198t154 46q41 -12 52.5 -46t1 -74t-11.5 -83t18 -72q31 29 63.5 83.5t54 97.5t57.5 86t74.5 50t106.5 -11q31 -31 41 -39q8 -33 16.5 -114t24.5 -122q16 16 44 50l47 56.5t48 51.5t55.5 44t57.5 28.5t64.5 11.5t70.5 -17q23 -14 31 -38.5t8 -63.5
t2 -51q59 -436 -51 -723q-14 -51 -78 -61.5t-117 22.5q-6 0 -10 11.5t-4 27.5t4 31q94 256 41 610q0 28 -32 2q-14 -11 -19 -23q-102 -170 -193 -415q-27 -53 -99.5 -75t-113.5 34q-31 63 -8 206.5t-2 219.5q-35 -59 -99.5 -205.5t-113.5 -220.5q-33 -45 -99.5 -45t-84.5 45
q-33 82 -29 236.5t-2 250.5z" />
    <glyph glyph-name="n" unicode="n" horiz-adv-x="737" 
d="M90 444q0 33 -6 110t-4 131t18 97q18 47 83 44t79 -54q8 -29 -5 -82t-13 -74q4 -4 11 -17q6 -8 7 -7q4 6 19.5 32.5t20.5 36t20.5 32t23.5 30.5t23.5 25.5t28 23.5t29.5 15.5t33.5 10.5t36 0t42.5 -7q33 -51 54 -107.5t31.5 -134.5t14.5 -114t8 -139t4 -120
q20 -90 -26 -104q-131 -35 -140 18q-12 78 -18 246t-25 256q-57 -63 -112.5 -209.5t-85.5 -198.5q-25 -41 -75 -43t-69 43q-12 35 -14 77t2 100t4 83z" />
    <glyph glyph-name="o" unicode="o" horiz-adv-x="577" 
d="M217 268q-102 61 -145 176t-9 234q18 68 71.5 142.5t60.5 88.5q41 78 123.5 70t146.5 -78q68 -78 100 -201q55 -207 -141 -413q-33 -35 -99.5 -39.5t-107.5 20.5zM283 471q70 -16 102.5 31t17 120.5t-68.5 133.5q-23 24 -79 -39q-75 -84 -64 -161q9 -66 92 -85z" />
    <glyph glyph-name="p" unicode="p" horiz-adv-x="704" 
d="M84 705q2 12 -13.5 39.5t-4.5 43.5q27 23 28.5 89.5t36.5 89.5q43 31 86 32.5t74 -32.5q16 -16 18 -57.5t10 -45.5q74 -8 135.5 -23.5t126 -44t98.5 -81.5t26 -123q-8 -78 -44 -130t-94.5 -80t-113 -43t-129 -31.5t-115.5 -31.5q-25 -150 -19.5 -226.5t48.5 -223.5
q0 -6 8 -17.5l19 -26.5t18 -26q25 -51 -41 -63t-111 8q-10 4 -20.5 11t-17.5 13.5t-13 18.5l-10 19.5t-9.5 23.5t-7.5 24.5t-5 27t-3 25.5t-3 27.5t-3 24.5q-10 78 -12 159t5 164t14 150.5t19.5 162t18.5 153.5zM301 694q-41 -41 -59.5 -136t14.5 -114q63 -29 152.5 18.5
t101.5 143.5q12 72 -70 88q-37 16 -76.5 18t-62.5 -18z" />
    <glyph glyph-name="q" unicode="q" horiz-adv-x="786" 
d="M266 924q61 29 137 21.5t121 -58.5q31 47 95.5 46t80.5 -38q33 -74 16.5 -193.5t-48 -235.5t-36.5 -268.5t50 -293.5q20 -47 71.5 -46t67.5 31q2 4 9.5 20.5t11.5 26t13 28t16.5 25.5t18.5 21.5t20.5 15.5t24.5 6t28 -5q27 -12 42 -25.5t21 -25t2 -31t-9 -31.5t-19.5 -42
l-22.5 -46q-41 -98 -158 -132t-211 11q-61 27 -101 87.5t-46 125.5q0 27 4 95.5t2 115.5t-16 84q-14 23 -35 17.5l-57.5 -15.5t-55.5 -2q-23 14 -71 23.5t-66 23.5q-12 14 -45 49t-50.5 58.5t-25.5 48.5q-53 121 -8 250q20 88 79.5 155.5t149.5 102.5zM285 739
q-86 -86 -77 -208.5t105 -178.5q35 -23 77 -13.5t61 50.5q14 31 21 73t8 65.5t0 80t-1 66.5q0 43 -43 81t-96 29q-12 -4 -20.5 -9t-20.5 -19.5t-14 -16.5z" />
    <glyph glyph-name="r" unicode="r" horiz-adv-x="661" 
d="M92 635q-4 31 -21.5 78t-28.5 80.5t-7 72.5t37 68q76 66 148.5 2t55.5 -166q39 6 78 38t63.5 62.5t66.5 49t91 4.5q20 -8 26.5 -11.5t24 -11.5t21.5 -14l11.5 -16.5t3 -22.5t-14.5 -27q-39 -55 -142.5 -140t-146.5 -149q-16 -23 -19 -73.5t-11 -69.5q-39 -59 20 -133
q31 -39 25 -102.5t-45 -102.5q-31 -45 -87.5 -47t-86.5 37q-35 23 -31 92q8 183 -31 502z" />
    <glyph glyph-name="s" unicode="s" horiz-adv-x="706" 
d="M430 915q18 -8 74.5 -29.5t83 -33.5t61.5 -40t51 -62q12 -23 -1 -58t-31 -47q-43 -27 -117 14l-136.5 76t-150.5 -8q-39 -27 -2 -80t78 -67q213 -76 324 -179q41 -49 35.5 -114.5t-42.5 -124.5q-53 -90 -174 -142.5t-247.5 -26t-184.5 145.5q-20 41 14.5 81t81.5 44
q27 2 52.5 -41t42.5 -51q72 -41 168 -3t96 122q0 20 -32 48t-62 42l-101 42t-111.5 48t-79.5 55t-69 88q-37 76 31 161t175 127t173 13z" />
    <glyph glyph-name="t" unicode="t" horiz-adv-x="813" 
d="M342 915q2 18 14.5 93t16.5 116q8 70 83.5 80t133.5 -30q27 -27 10 -70q-80 -174 -80 -418l58 7q182 24 220 -10q24 -21 11 -65q-6 -20 -20.5 -35.5t-40 -24.5t-45 -15t-56.5 -8.5t-54.5 -3.5t-58 0t-49.5 1q-10 -70 17.5 -417.5t23.5 -403.5q-2 -31 -21.5 -50t-49.5 -19
q-37 0 -55.5 13t-30.5 52q-18 51 -38 405.5t-52 413.5q-43 -33 -94.5 -51t-101.5 -8t-69 61q-8 20 9.5 47t42.5 43q27 14 117.5 34t119.5 55q18 23 24.5 56.5t9.5 82.5t5 69z" />
    <glyph glyph-name="u" unicode="u" horiz-adv-x="751" 
d="M53 733q0 10 1 52t3 59.5t13.5 43t33.5 40.5q53 25 114 7.5t61 -69.5q0 -45 -4.5 -127t-4.5 -148.5t9 -125.5q4 -12 9 -41t10 -49.5l12 -50t15.5 -45t20.5 -33t24.5 -15.5t30.5 9q133 90 164 269t-61 327q-18 29 -28.5 57.5t-8.5 57t27 38.5q98 41 173.5 -49t82.5 -197
q12 -211 -54.5 -395t-222.5 -252q-104 -47 -180 -18.5t-125 97.5t-77 170t-36 199.5t-2 188.5z" />
    <glyph glyph-name="v" unicode="v" horiz-adv-x="880" 
d="M160 516q-92 170 -135 291q-18 53 22.5 86t98 31t77.5 -33q47 -57 98.5 -205.5t98.5 -210.5q37 61 70.5 143t51 135.5l51.5 164l46 149.5q27 66 103.5 63.5t136.5 -53.5q6 -12 -2.5 -38.5t-8.5 -32.5q-6 -8 -26.5 -30t-26.5 -34q-111 -403 -291 -747q-18 -35 -70.5 -51.5
t-84.5 18.5q-16 14 -31.5 31.5t-31 38t-26 36t-24.5 41l-21.5 38.5t-20.5 44l-17 40l-19.5 44t-17.5 41z" />
    <glyph glyph-name="w" unicode="w" horiz-adv-x="1247" 
d="M229 903q41 -49 44 -129t-9 -149.5t6 -155.5q6 -20 15.5 -75.5t21.5 -92.5t35 -65q29 -37 70 22q23 33 65.5 129t85.5 139q41 39 73 42t75 -33q43 -41 99 -158t114 -154q25 -14 57 47q45 76 53 175.5t0 171t17 159.5q10 35 54 44t85 -17.5t47 -79.5q25 -219 -10 -382
t-176 -257q-129 -84 -256 -23q-45 20 -97.5 102.5t-64.5 84.5t-38 -40t-63.5 -96.5t-72.5 -72.5q-68 -39 -144.5 -40t-124.5 50q-82 109 -119.5 249t-33.5 273.5t14 280.5q8 68 75.5 83t102.5 -32z" />
    <glyph glyph-name="x" unicode="x" horiz-adv-x="964" 
d="M180 963q78 0 125 -42t62.5 -96.5t41 -122t60.5 -102.5q35 18 83 60l87 76t82 59.5t84 18.5t76 -52q33 -53 22.5 -84t-55.5 -65.5t-94 -60.5t-94.5 -67t-53.5 -86q-18 -90 137 -211q37 -39 99.5 -112.5t99.5 -112.5q60 -60 -26 -105q-71 -37 -130 -22l-6 2
q-57 20 -109.5 79.5t-85 118t-83.5 112t-109 65.5q-23 4 -45 -21.5t-48 -67.5t-44 -61q-39 -57 -119 -57t-106 57q-20 55 7.5 110.5t73.5 94.5t88 92.5t44 102.5q2 61 -38 137l-82 153.5t-42 145.5q-10 27 23.5 45.5t74.5 18.5z" />
    <glyph glyph-name="y" unicode="y" horiz-adv-x="708" 
d="M80 811q0 8 -4 37t-4 42t4 32.5t14 29.5q31 47 94.5 49.5t87.5 -49.5q29 -57 27 -164.5t4 -179.5q2 -8 6 -11t9.5 -1t9.5 5t9 9t7 8l42 96.5t49.5 107.5t53 80t78.5 71q29 10 68 12t62.5 -24.5t0.5 -69.5q-25 -47 -82 -146.5t-88.5 -160t-63.5 -153.5t-38 -177
q-8 -106 -74.5 -257t-142.5 -247q-57 -70 -161.5 -72t-143.5 72q-72 143 10 193q37 23 80 -5t51 -75q43 33 67.5 56.5t40 56t19.5 49t14.5 71l16.5 86.5q12 63 -33 165t-49 138q-6 55 -20.5 162t-20.5 164z" />
    <glyph glyph-name="z" unicode="z" horiz-adv-x="968" 
d="M164 936q72 -12 183.5 -20.5t174 -17.5t147.5 -47t160 -108q6 -18 2 -44.5t-14 -43.5q-49 -49 -139 -125.5t-158.5 -146.5t-118.5 -150q123 -29 245 -30.5t249 -28.5q47 -10 65.5 -39t-10.5 -72q-31 -55 -99.5 -68t-133.5 11q-111 37 -206 23.5t-206 11.5
q-244 61 -201 145t120 168t171 172t144 150q-35 41 -58.5 51t-61.5 4t-67 -2q-31 4 -115.5 -2t-115.5 8q-20 0 -47 15.5t-33 40.5q-16 63 27 108t96 37z" />
    <glyph glyph-name="braceleft" unicode="{" horiz-adv-x="911" 
d="M723 1276q12 -2 65.5 3t67.5 -15q104 -100 23 -154q-59 -29 -134 -26t-136.5 22.5t-134.5 18.5t-128 -38q6 -41 37 -86t62.5 -81.5t55 -76.5t15.5 -84t-59 -91q-6 -10 -17.5 -84t-38.5 -105q-8 -8 -41.5 -33.5t-49 -40t-37 -39t-26.5 -49t1 -49.5q14 -53 59 -77.5
t100.5 -22.5t117 4t110.5 -2q30 0 -13 -65q-23 -34 -42 -46q-152 -100 -387 -34q-90 27 -166 145q-18 39 -20.5 79t8 71.5t29.5 67.5t40.5 65.5t46.5 67.5t39 69q2 6 -2 13t-16.5 13.5l-23.5 12.5t-29.5 13t-28.5 13q-68 47 -56 101q6 8 42 31.5t36 56.5q41 0 68.5 10
t19.5 35q-4 31 -52 113.5t-24 127.5q29 55 72 94.5t96.5 56.5t103.5 25.5t117.5 2.5t114.5 -12.5t115 -20.5z" />
    <glyph glyph-name="bar" unicode="|" horiz-adv-x="374" 
d="M285 752q0 -74 12 -176.5t23.5 -177t9.5 -166t-25 -166.5q-6 -29 -53 -51.5t-97.5 -10.5t-56.5 72q-43 483 -43 633q0 139 43 456q0 47 35 87t86 55q61 18 115.5 -29t36.5 -90q-86 -194 -86 -436z" />
    <glyph glyph-name="braceright" unicode="}" horiz-adv-x="643" 
d="M88 1274q6 12 15.5 21.5t20.5 11.5t19.5 4t24.5 -3t22.5 -6.5t24.5 -8.5t21 -9q8 -2 73.5 -26.5t86 -34l68.5 -33t82 -48t64 -55.5q45 -47 29 -108q-16 -66 -76.5 -100.5t-144.5 -61t-123 -55.5q33 -25 105.5 -35t105.5 -32.5t6 -88.5q-8 -23 -30.5 -40t-56.5 -36.5
t-50 -31.5q2 -2 29.5 -21.5l33.5 -23.5t31 -23.5t32 -28t24.5 -28t21.5 -31.5t12 -31.5t6 -37t-7 -39t-17 -41.5q-39 -70 -104.5 -121.5t-145.5 -68.5t-154 32q-20 41 0 78q18 27 58.5 42t73 21t53 26.5t12.5 57.5q-8 41 -61.5 78t-99.5 76t-46 84q0 12 23.5 47t17.5 51
q-10 27 -62.5 71t-66.5 66q-18 33 3 67t56 52q57 39 178 82t148 55q-33 49 -103.5 70.5t-143.5 41t-107 64.5q-10 14 -11.5 29.5t1.5 24t13.5 29t14.5 26.5z" />
    <glyph glyph-name="asciitilde" unicode="~" horiz-adv-x="788" 
d="M166 1186q39 39 65.5 60.5t64.5 41t77 16t80 -27.5q33 -20 47 -85t28 -85q20 -29 36 -34t30 9.5t28.5 34t41 45t57.5 39.5q37 12 56.5 -14.5t4.5 -55.5q-82 -125 -134 -164.5t-146 -43.5q-41 -2 -74 24.5t-47 71.5q-14 43 -28.5 64.5t-33.5 15.5q-45 -14 -74.5 -47
t-42 -59.5t-47 -42t-96.5 -3.5q-18 6 -20 37t12.5 51.5t29.5 46t22.5 34.5l22.5 27.5t40 43.5z" />
    <glyph glyph-name="exclamdown" unicode="&#xa1;" horiz-adv-x="473" 
d="M295 1063q-16 10 -41 10q4 29 -6 78t-5 83t42 56q76 45 121 -5t65 -140q0 -61 -60.5 -90t-115.5 8zM324 969q27 -10 40 -26.5t14 -39t-1 -42t-8.5 -48.5t-8.5 -45q-59 -449 -149 -713q-14 -43 -60.5 -54t-83 9.5t-32.5 55.5q12 158 88 455.5t94 430.5q1 60 107 17z" />
    <glyph glyph-name="yen" unicode="&#xa5;" horiz-adv-x="739" 
d="M418 342l-6 -25q20 -2 56 11.5t59.5 18.5t58.5 -13q14 -4 24.5 10t16.5 10q35 -31 24.5 -61.5t-51.5 -46.5q-88 -63 -219 -80q-25 -119 -62 -254q-8 -25 -43.5 -40t-87.5 3q-35 14 -41 55t5 74q10 66 47 176q-94 27 -142 96q-18 39 23 74t96 43q41 0 82 -10q18 74 12 121
q-80 3 -159 24q-33 8 -58.5 38t-7.5 50q49 66 180 70q-23 57 -75 169t-85.5 201t-41.5 167q-6 47 58 76.5t97 -1.5q49 -43 78 -140t56.5 -200.5t68.5 -152.5q33 43 85 224t120 231q33 25 73.5 24.5t65.5 -23t10 -57.5q-145 -367 -223 -532q8 0 24.5 1t22.5 1q72 10 92 -39
q33 -72 -92 -96q-8 -2 -25.5 -7.5t-25.5 -7.5q2 -8 20 -35q18 -18 -8 -83q-10 -8 -51 -22.5t-51 -41.5z" />
    <glyph glyph-name="section" unicode="&#xa7;" horiz-adv-x="1177" 
d="M475 375q23 0 64 13t64.5 17.5t62.5 -14.5q16 -4 27.5 10.5t17.5 10.5q41 -31 29.5 -62t-58.5 -47q-47 -31 -119 -53q63 -53 145.5 -69.5t163.5 9.5q18 6 49 26t53.5 33t52.5 21.5t46 -8.5q55 -45 68.5 -88t-33.5 -84q-201 -145 -512 -49q-154 49 -227 109q-39 33 -66 71
q-162 16 -233 113q-20 41 25.5 75.5t109.5 41.5q27 0 39 -2q0 39 6 77q0 2 1 9.5t1 11.5q-61 6 -123 18q-37 10 -65.5 40t-8.5 50q61 78 252 70q98 205 307 256q129 29 297 -20q37 -12 65 -46t5 -73q-12 -23 -30.5 -33t-52.5 -16.5t-46 -10.5q-41 -12 -117 4.5t-106 6.5
q-68 -25 -115 -80q72 -4 123 2q78 6 104 -41q18 -39 -14.5 -62.5t-89.5 -36.5q-123 -25 -184 -28q-6 -78 18 -156q0 -8 4 -16z" />
    <glyph glyph-name="dieresis" unicode="&#xa8;" horiz-adv-x="663" 
d="M92 1272q59 53 134 33.5t100 -80.5q31 -70 -10.5 -144.5t-120.5 -52.5q-63 18 -74 29q-66 61 -66 131q0 49 37 84zM623 1266q35 -20 40 -64.5t-14 -77.5q-23 -53 -81 -84.5t-105 0.5q-37 25 -50.5 66t-1 78t41 67.5t74 35t96.5 -20.5z" />
    <glyph glyph-name="acute" unicode="&#xb4;" horiz-adv-x="323" 
d="M109 1167q25 47 41 73t46.5 48.5t65.5 22.5q20 0 44 -24.5t16 -43.5q-31 -82 -56.5 -119t-95.5 -100q-16 -14 -36.5 -26.5t-43 -16.5t-31.5 16q-12 29 -8 54.5t8 34t21 32.5t29 49z" />
    <glyph glyph-name="questiondown" unicode="&#xbf;" horiz-adv-x="675" 
d="M498 975q84 -57 120.5 -161.5t8.5 -197.5q-18 -55 -72.5 -96t-112 -62.5t-117 -65.5t-85.5 -103q63 -35 202.5 -79t204.5 -79q35 -16 27 -61t-47 -68q-102 -20 -150 0q-37 14 -131 47t-160.5 64.5t-126.5 76.5q-53 53 -39 80q20 82 91 145.5t159 124t127 117.5
q27 39 8.5 104.5t-37 113t20.5 100.5q14 16 50 16t59 -16zM567 1143q-27 -18 -118 -19q-43 6 -60.5 39t0.5 70q20 45 79.5 61.5t98.5 -12.5q43 -31 44 -69.5t-44 -69.5z" />
    <glyph glyph-name="Agrave" unicode="&#xc0;" 
d="M248 907q10 33 39.5 171.5t72.5 197.5q16 25 68.5 33t69.5 -23q39 -82 71.5 -181t50 -174l46 -197t45.5 -187q0 -14 27.5 -28.5t35.5 -26.5q20 -35 0 -56q-35 -76 10 -200.5t37 -178.5q-6 -43 -66.5 -54t-90.5 28q-29 39 -46.5 155.5t-72.5 149.5q-57 33 -135 23.5
t-134 -52.5q-25 -18 -41 -66t-23 -94.5t-26.5 -89.5t-51.5 -52t-97 15q-12 57 -1 119t38.5 140.5t36.5 119.5q63 289 137 508zM360 723q-4 -27 -18 -67t-25.5 -65.5t-13.5 -54t19 -34.5q35 -25 108.5 -21t85.5 47q8 31 8 67t-2 59.5t-18.5 68.5l-21.5 58.5t-30.5 67.5
t-27.5 58q-48 -57 -64 -184zM537 1569q4 -18 11 -44t12 -41.5t10 -36t6.5 -32.5t2.5 -25.5t-2.5 -21.5t-8.5 -16.5t-14 -12.5t-24 -6q-23 -2 -42 9.5t-29 23.5t-27 39l-127 180q-33 51 17.5 94t105.5 37q72 -8 109 -147z" />
    <glyph glyph-name="Aacute" unicode="&#xc1;" 
d="M248 907q10 33 39.5 171.5t72.5 197.5q16 25 68.5 33t69.5 -23q39 -82 71.5 -181t50 -174l46 -197t45.5 -187q0 -14 27.5 -28.5t35.5 -26.5q20 -35 0 -56q-35 -76 10 -200.5t37 -178.5q-6 -43 -66.5 -54t-90.5 28q-29 39 -46.5 155.5t-72.5 149.5q-57 33 -135 23.5
t-134 -52.5q-25 -18 -41 -66t-23 -94.5t-26.5 -89.5t-51.5 -52t-97 15q-12 57 -1 119t38.5 140.5t36.5 119.5q63 289 137 508zM360 723q-4 -27 -18 -67t-25.5 -65.5t-13.5 -54t19 -34.5q35 -25 108.5 -21t85.5 47q8 31 8 67t-2 59.5t-18.5 68.5l-21.5 58.5t-30.5 67.5
t-27.5 58q-48 -57 -64 -184zM469 1556q25 47 41 73t47 48.5t66 22.5q20 0 43.5 -24.5t15.5 -43.5q-31 -82 -56.5 -118.5t-95.5 -100.5q-16 -14 -36.5 -26.5t-43 -16.5t-30.5 16q-12 29 -8 54.5t8 34t20.5 32.5t28.5 49z" />
    <glyph glyph-name="Acircumflex" unicode="&#xc2;" 
d="M248 907q10 33 39.5 171.5t72.5 197.5q16 25 68.5 33t69.5 -23q39 -82 71.5 -181t50 -174l46 -197t45.5 -187q0 -14 27.5 -28.5t35.5 -26.5q20 -35 0 -56q-35 -76 10 -200.5t37 -178.5q-6 -43 -66.5 -54t-90.5 28q-29 39 -46.5 155.5t-72.5 149.5q-57 33 -135 23.5
t-134 -52.5q-25 -18 -41 -66t-23 -94.5t-26.5 -89.5t-51.5 -52t-97 15q-12 57 -1 119t38.5 140.5t36.5 119.5q63 289 137 508zM360 723q-4 -27 -18 -67t-25.5 -65.5t-13.5 -54t19 -34.5q35 -25 108.5 -21t85.5 47q8 31 8 67t-2 59.5t-18.5 68.5l-21.5 58.5t-30.5 67.5
t-27.5 58q-48 -57 -64 -184zM442 1665q29 0 41 -6q20 -27 115.5 -244t97.5 -233q-8 0 -19 -16.5t-22 -12.5q-8 4 -34.5 7t-48 7t-23.5 11q-55 137 -125 231q-16 -33 -31.5 -57.5t-37 -50l-31 -36t-44 -45t-47.5 -46.5q-23 -16 -55.5 -15.5t-58.5 12.5q-43 18 -6 70l81 111.5
l77.5 106.5t64.5 95.5t65 110.5h41z" />
    <glyph glyph-name="Atilde" unicode="&#xc3;" 
d="M248 907q10 33 39.5 171.5t72.5 197.5q16 25 68.5 33t69.5 -23q39 -82 71.5 -181t50 -174l46 -197t45.5 -187q0 -14 27.5 -28.5t35.5 -26.5q20 -35 0 -56q-35 -76 10 -200.5t37 -178.5q-6 -43 -66.5 -54t-90.5 28q-29 39 -46.5 155.5t-72.5 149.5q-57 33 -135 23.5
t-134 -52.5q-25 -18 -41 -66t-23 -94.5t-26.5 -89.5t-51.5 -52t-97 15q-12 57 -1 119t38.5 140.5t36.5 119.5q63 289 137 508zM360 723q-4 -27 -18 -67t-25.5 -65.5t-13.5 -54t19 -34.5q35 -25 108.5 -21t85.5 47q8 31 8 67t-2 59.5t-18.5 68.5l-21.5 58.5t-30.5 67.5
t-27.5 58q-48 -57 -64 -184zM254 1534q39 39 65.5 60.5t64.5 41t77 16.5t80 -28q33 -20 47 -84.5t28 -85.5q20 -29 36 -34t30 9.5t28.5 34t41 45t57.5 39.5q37 12 56.5 -14.5t4.5 -54.5q-82 -125 -134 -165t-146 -44q-41 -2 -74 24.5t-47 71.5q-14 43 -28.5 64.5t-32.5 15.5
q-45 -14 -75 -47t-42 -59.5t-47 -42t-97 -3.5q-18 6 -20 37t12.5 51.5t29.5 46t22.5 35l22.5 27.5t40 43z" />
    <glyph glyph-name="Adieresis" unicode="&#xc4;" 
d="M248 907q10 33 39.5 171.5t72.5 197.5q16 25 68.5 33t69.5 -23q39 -82 71.5 -181t50 -174l46 -197t45.5 -187q0 -14 27.5 -28.5t35.5 -26.5q20 -35 0 -56q-35 -76 10 -200.5t37 -178.5q-6 -43 -66.5 -54t-90.5 28q-29 39 -46.5 155.5t-72.5 149.5q-57 33 -135 23.5
t-134 -52.5q-25 -18 -41 -66t-23 -94.5t-26.5 -89.5t-51.5 -52t-97 15q-12 57 -1 119t38.5 140.5t36.5 119.5q63 289 137 508zM360 723q-4 -27 -18 -67t-25.5 -65.5t-13.5 -54t19 -34.5q35 -25 108.5 -21t85.5 47q8 31 8 67t-2 59.5t-18.5 68.5l-21.5 58.5t-30.5 67.5
t-27.5 58q-48 -57 -64 -184zM164 1591q59 53 134 34t99 -81q31 -70 -10 -144.5t-121 -51.5q-63 18 -73 28q-66 61 -66 131q0 49 37 84zM694 1585q35 -20 40 -64t-13 -77q-23 -53 -81 -85t-105 1q-37 25 -50.5 65.5t-1 77.5t41 68t73.5 35t96 -21z" />
    <glyph glyph-name="Aring" unicode="&#xc5;" 
d="M360 723q-4 -27 -18 -67t-25.5 -65.5t-13.5 -54t19 -34.5q35 -25 108.5 -21t85.5 47q8 31 8 67t-2 59.5t-18.5 68.5l-21.5 58.5t-30.5 67.5t-27.5 58q-48 -57 -64 -184zM508 1305q-8 -8 -14 -13q4 -4 4 -6q39 -82 71.5 -181t50 -174l46 -197t45.5 -187q0 -14 27.5 -28.5
t35.5 -26.5q20 -35 0 -56q-35 -76 10 -200.5t37 -178.5q-6 -43 -66.5 -54t-90.5 28q-29 39 -46.5 155.5t-72.5 149.5q-57 33 -135 23.5t-134 -52.5q-25 -18 -41 -66t-23 -94.5t-26.5 -89.5t-51.5 -52t-97 15q-12 57 -1 119t38.5 140.5t36.5 119.5q63 289 137 508
q10 33 39.5 171.5t72.5 197.5q2 4 9 10q-53 39 -64 109q-8 61 38 112.5t110 63.5q53 10 96 -45q37 -59 22.5 -115.5t-63.5 -105.5zM463 1384q35 43 16 72q-14 18 -26 19q-18 0 -34 -15.5t-18 -34.5q-8 -41 29 -55q17 -11 33 14z" />
    <glyph glyph-name="Ccedilla" unicode="&#xc7;" horiz-adv-x="921" 
d="M575 4q-6 -162 -47 -203q-37 -37 -117.5 -46t-136.5 22q-96 57 -28 125q20 20 79.5 3.5t80.5 2.5q10 8 11 26.5t-1 49t-2 45.5l-43 12q-154 49 -228 109q-152 127 -118 376q25 170 115.5 294t250.5 161q125 29 297 -20q37 -12 63.5 -46t4.5 -73q-12 -23 -30.5 -33
t-51.5 -16.5t-45 -10.5q-41 -12 -117 4.5t-106 6.5q-117 -41 -158 -159t-2 -243t157.5 -183t243.5 -18q18 6 49 26t53.5 33t52 21.5t46.5 -8.5q55 -45 68.5 -88t-33.5 -84q-132 -96 -308 -86z" />
    <glyph glyph-name="Egrave" unicode="&#xc8;" horiz-adv-x="735" 
d="M78 780q0 31 -12.5 93.5t-12.5 109.5t25 82q86 125 258 140.5t299 -85.5q29 -20 6 -58t-72 -46q-35 -4 -122 18.5t-134 1.5q-45 -20 -52 -75.5t4 -109.5t-9 -108q39 -23 99.5 -23.5t107.5 6.5t93 -12.5t69 -74.5q-33 -57 -100.5 -67.5t-138.5 -12.5t-101 -35
q-23 -25 -31 -67.5t-7 -71.5t9 -96.5l10 -83.5q68 -12 138.5 6t155.5 56t132 50q6 6 37 -18q14 -49 -4 -88t-61 -55q-37 -12 -108 -41t-114 -44.5t-105.5 -27.5t-117.5 -10q-14 2 -48 3t-52.5 8t-22.5 28q-25 78 -17.5 226t-10.5 226q-2 10 -17.5 33t-18.5 35t7 37q0 4 5 9
t12 10t12 9q6 14 9 32t3 30t-1 32.5t-1 28.5zM383 1470q4 -18 11 -43.5t12.5 -41t10.5 -36t6 -32.5t2 -25.5t-2 -21.5t-8 -16.5t-14.5 -12.5t-23.5 -6q-23 -2 -42.5 9t-29.5 23.5t-26 39.5l-127 180q-33 51 17 94t105 37q72 -9 109 -148z" />
    <glyph glyph-name="Eacute" unicode="&#xc9;" horiz-adv-x="735" 
d="M78 780q0 31 -12.5 93.5t-12.5 109.5t25 82q86 125 258 140.5t299 -85.5q29 -20 6 -58t-72 -46q-35 -4 -122 18.5t-134 1.5q-45 -20 -52 -75.5t4 -109.5t-9 -108q39 -23 99.5 -23.5t107.5 6.5t93 -12.5t69 -74.5q-33 -57 -100.5 -67.5t-138.5 -12.5t-101 -35
q-23 -25 -31 -67.5t-7 -71.5t9 -96.5l10 -83.5q68 -12 138.5 6t155.5 56t132 50q6 6 37 -18q14 -49 -4 -88t-61 -55q-37 -12 -108 -41t-114 -44.5t-105.5 -27.5t-117.5 -10q-14 2 -48 3t-52.5 8t-22.5 28q-25 78 -17.5 226t-10.5 226q-2 10 -17.5 33t-18.5 35t7 37q0 4 5 9
t12 10t12 9q6 14 9 32t3 30t-1 32.5t-1 28.5zM362 1456q25 47 41.5 72.5t47 48t65.5 22.5q20 0 44 -24.5t15 -42.5q-31 -82 -56 -119t-95 -100q-16 -14 -36.5 -26.5t-43 -16.5t-31.5 16q-12 29 -8 54.5t8 33.5t20.5 32.5t28.5 49.5z" />
    <glyph glyph-name="Ecircumflex" unicode="&#xca;" horiz-adv-x="735" 
d="M78 780q0 31 -12.5 93.5t-12.5 109.5t25 82q86 125 258 140.5t299 -85.5q29 -20 6 -58t-72 -46q-35 -4 -122 18.5t-134 1.5q-45 -20 -52 -75.5t4 -109.5t-9 -108q39 -23 99.5 -23.5t107.5 6.5t93 -12.5t69 -74.5q-33 -57 -100.5 -67.5t-138.5 -12.5t-101 -35
q-23 -25 -31 -67.5t-7 -71.5t9 -96.5l10 -83.5q68 -12 138.5 6t155.5 56t132 50q6 6 37 -18q14 -49 -4 -88t-61 -55q-37 -12 -108 -41t-114 -44.5t-105.5 -27.5t-117.5 -10q-14 2 -48 3t-52.5 8t-22.5 28q-25 78 -17.5 226t-10.5 226q-2 10 -17.5 33t-18.5 35t7 37q0 4 5 9
t12 10t12 9q6 14 9 32t3 30t-1 32.5t-1 28.5zM358 1624q29 0 41 -6q20 -27 115.5 -244t97.5 -233q-8 0 -19 -16.5t-22 -12.5q-8 4 -34.5 7t-48 7t-23.5 11q-55 137 -125 231q-16 -33 -31.5 -57.5t-37 -50l-31 -36t-44 -45l-46.5 -46.5q-23 -16 -56 -15.5t-59 12.5
q-43 18 -6 70l81 111.5l77.5 106.5t64.5 95.5t65 110.5h41z" />
    <glyph glyph-name="Edieresis" unicode="&#xcb;" horiz-adv-x="735" 
d="M78 780q0 31 -12.5 93.5t-12.5 109.5t25 82q86 125 258 140.5t299 -85.5q29 -20 6 -58t-72 -46q-35 -4 -122 18.5t-134 1.5q-45 -20 -52 -75.5t4 -109.5t-9 -108q39 -23 99.5 -23.5t107.5 6.5t93 -12.5t69 -74.5q-33 -57 -100.5 -67.5t-138.5 -12.5t-101 -35
q-23 -25 -31 -67.5t-7 -71.5t9 -96.5l10 -83.5q68 -12 138.5 6t155.5 56t132 50q6 6 37 -18q14 -49 -4 -88t-61 -55q-37 -12 -108 -41t-114 -44.5t-105.5 -27.5t-117.5 -10q-14 2 -48 3t-52.5 8t-22.5 28q-25 78 -17.5 226t-10.5 226q-2 10 -17.5 33t-18.5 35t7 37q0 4 5 9
t12 10t12 9q6 14 9 32t3 30t-1 32.5t-1 28.5zM104 1585q59 53 134 33.5t100 -80.5q31 -70 -10 -144.5t-121 -52.5q-63 18 -74 29q-66 61 -65 131q-1 49 36 84zM635 1579q35 -20 40 -64.5t-13 -76.5q-23 -53 -81.5 -85t-105.5 1q-37 25 -50 65.5t-1 77.5t41 67.5t74 35
t96 -20.5z" />
    <glyph glyph-name="Igrave" unicode="&#xcc;" horiz-adv-x="329" 
d="M59 354q0 53 -2 173t-2 189.5t6.5 172t20.5 190.5q12 82 79.5 105.5t143.5 -27.5q35 -35 23 -59q-51 -145 -59.5 -309t5 -372t9.5 -311q-2 -23 -47.5 -30.5t-85.5 12.5q-16 8 -30 18.5t-23 24.5l-16 25.5t-11 31t-6.5 30.5t-3.5 36t-1 33v34.5v32.5zM260 1483
q4 -18 11.5 -44t12.5 -41.5t10 -36t6 -32.5t2 -25.5t-2 -21.5t-8 -16.5t-14.5 -12.5t-23.5 -6q-23 -2 -42 9.5t-29.5 23.5t-26.5 39l-127 180q-33 51 17 94t106 37q71 -8 108 -147z" />
    <glyph glyph-name="Iacute" unicode="&#xcd;" horiz-adv-x="329" 
d="M59 354q0 53 -2 173t-2 189.5t6.5 172t20.5 190.5q12 82 79.5 105.5t143.5 -27.5q35 -35 23 -59q-51 -145 -59.5 -309t5 -372t9.5 -311q-2 -23 -47.5 -30.5t-85.5 12.5q-16 8 -30 18.5t-23 24.5l-16 25.5t-11 31t-6.5 30.5t-3.5 36t-1 33v34.5v32.5zM244 1475
q25 47 41 72.5t46.5 48t65.5 22.5q20 0 44 -24.5t16 -43.5q-31 -82 -56.5 -118.5t-95.5 -100.5q-16 -14 -36.5 -26.5t-43 -16.5t-30.5 17q-12 29 -8.5 54t8 33.5t21 33t28.5 49.5z" />
    <glyph glyph-name="Icircumflex" unicode="&#xce;" horiz-adv-x="329" 
d="M59 354q0 53 -2 173t-2 189.5t6.5 172t20.5 190.5q12 82 79.5 105.5t143.5 -27.5q35 -35 23 -59q-51 -145 -59.5 -309t5 -372t9.5 -311q-2 -23 -47.5 -30.5t-85.5 12.5q-16 8 -30 18.5t-23 24.5l-16 25.5t-11 31t-6.5 30.5t-3.5 36t-1 33v34.5v32.5zM223 1624q29 0 41 -6
q20 -27 115.5 -244t97.5 -233q-8 0 -19.5 -16.5t-21.5 -12.5q-8 4 -34.5 7t-48 7t-23.5 11q-55 137 -125 231q-16 -33 -31.5 -57.5t-37 -50l-31 -36t-44 -45t-47.5 -46.5q-23 -16 -55.5 -15.5t-58.5 12.5q-43 18 -6 70l81 111.5l77.5 106.5t64.5 95.5t65 110.5h41z" />
    <glyph glyph-name="Idieresis" unicode="&#xcf;" horiz-adv-x="329" 
d="M59 354q0 53 -2 173t-2 189.5t6.5 172t20.5 190.5q12 82 79.5 105.5t143.5 -27.5q35 -35 23 -59q-51 -145 -59.5 -309t5 -372t9.5 -311q-2 -23 -47.5 -30.5t-85.5 12.5q-16 8 -30 18.5t-23 24.5l-16 25.5t-11 31t-6.5 30.5t-3.5 36t-1 33v34.5v32.5zM-84 1579
q59 53 134 33.5t100 -80.5q31 -70 -10.5 -144.5t-121.5 -52.5q-63 18 -73 29q-66 61 -66 131q0 49 37 84zM446 1573q35 -20 40.5 -64.5t-13.5 -76.5q-23 -53 -81 -85t-105 1q-37 25 -50.5 65.5t-1 77.5t41 67.5t73.5 35t96 -20.5z" />
    <glyph glyph-name="Ntilde" unicode="&#xd1;" horiz-adv-x="694" 
d="M63 131q-16 18 -16 43q12 96 23.5 381t44.5 442q6 29 59 29t74 -20q63 -84 130.5 -282t131.5 -282q14 39 18 77t1 99.5t-3 75.5q0 66 -36.5 228.5t-22.5 251.5q6 43 71.5 49t79.5 -33q35 -92 53.5 -211t20.5 -195.5t2 -220.5v-45q0 -211 -84 -295q-27 -31 -76 -34t-75 26
q-29 33 -57.5 78t-46 77.5l-47 91t-42.5 81.5q-27 -72 -22.5 -202t-12.5 -202q-10 -39 -69.5 -44t-98.5 36zM100 1516q39 39 66 60t64.5 40.5t76.5 16.5t80 -27q33 -20 47.5 -85t28.5 -85q20 -29 35.5 -34t30 9t28.5 33.5t41 45.5t57 40q37 12 56.5 -14.5t5.5 -55.5
q-82 -125 -134.5 -165t-146.5 -44q-41 -2 -73.5 25t-47.5 72q-14 43 -28.5 64.5t-32.5 14.5q-45 -14 -74.5 -46.5t-42 -59.5t-47.5 -42t-96 -3q-18 6 -20.5 36.5t12 51t30 46.5t22.5 35l22 27.5t40 43.5z" />
    <glyph glyph-name="Ograve" unicode="&#xd2;" horiz-adv-x="827" 
d="M55 582q41 143 159 255.5t258 127t267 -137.5q117 -158 80 -346t-192 -293q-102 -70 -211 -72.5t-203 62.5q-96 72 -142.5 180.5t-15.5 223.5zM268 457q20 -92 72.5 -147.5t130.5 -20.5q96 45 134 146.5t11 211.5q-14 55 -79.5 79t-122.5 11q-49 -8 -102.5 -118.5
t-43.5 -161.5zM514 1288q4 -18 11 -43.5t12.5 -41t10.5 -36t6 -33l2 -25.5t-2 -21.5t-8 -16.5t-14.5 -12t-23.5 -6q-23 -2 -42.5 9t-29.5 23.5t-26 38.5l-127 181q-33 51 17 94t106 37q71 -9 108 -148z" />
    <glyph glyph-name="Oacute" unicode="&#xd3;" horiz-adv-x="827" 
d="M55 582q41 143 159 255.5t258 127t267 -137.5q117 -158 80 -346t-192 -293q-102 -70 -211 -72.5t-203 62.5q-96 72 -142.5 180.5t-15.5 223.5zM268 457q20 -92 72.5 -147.5t130.5 -20.5q96 45 134 146.5t11 211.5q-14 55 -79.5 79t-122.5 11q-49 -8 -102.5 -118.5
t-43.5 -161.5zM487 1286q25 47 41.5 72.5t47 48.5t65.5 23q20 0 44 -25t15 -43q-31 -82 -56.5 -119t-94.5 -100q-16 -14 -36.5 -26.5t-43.5 -16.5t-31 16q-12 29 -8 54.5t8 33.5t20.5 32.5t28.5 49.5z" />
    <glyph glyph-name="Ocircumflex" unicode="&#xd4;" horiz-adv-x="827" 
d="M55 582q41 143 159 255.5t258 127t267 -137.5q117 -158 80 -346t-192 -293q-102 -70 -211 -72.5t-203 62.5q-96 72 -142.5 180.5t-15.5 223.5zM268 457q20 -92 72.5 -147.5t130.5 -20.5q96 45 134 146.5t11 211.5q-14 55 -79.5 79t-122.5 11q-49 -8 -102.5 -118.5
t-43.5 -161.5zM508 1423q29 0 41 -6q20 -27 115.5 -244t97.5 -233q-8 0 -19.5 -16.5t-21.5 -12.5q-8 4 -35 7.5t-48.5 7.5t-23.5 10q-55 137 -125 231q-16 -33 -31.5 -57.5t-37 -50l-30.5 -35.5t-44 -45l-47 -47q-23 -16 -55.5 -15t-59.5 13q-43 18 -6 69l81 112l78 106.5
t64.5 95t65.5 110.5h41z" />
    <glyph glyph-name="Otilde" unicode="&#xd5;" horiz-adv-x="827" 
d="M55 582q41 143 159 255.5t258 127t267 -137.5q117 -158 80 -346t-192 -293q-102 -70 -211 -72.5t-203 62.5q-96 72 -142.5 180.5t-15.5 223.5zM268 457q20 -92 72.5 -147.5t130.5 -20.5q96 45 134 146.5t11 211.5q-14 55 -79.5 79t-122.5 11q-49 -8 -102.5 -118.5
t-43.5 -161.5zM195 1333q39 39 65.5 60.5t64 41t76.5 16.5t80 -28q33 -20 47.5 -84.5t28.5 -85.5q20 -29 35.5 -34t30 9.5t29 34t41 45t57.5 40.5q37 12 56 -14.5t5 -55.5q-82 -125 -134 -165t-147 -44q-41 -2 -73.5 24.5t-46.5 71.5q-14 43 -28.5 64.5t-33.5 15.5
q-45 -14 -74.5 -47t-42 -59.5t-47 -42t-96.5 -2.5q-18 6 -20 36.5t12 51t29.5 46t22.5 35t22.5 27.5t40.5 43z" />
    <glyph glyph-name="Odieresis" unicode="&#xd6;" horiz-adv-x="827" 
d="M55 582q41 143 159 255.5t258 127t267 -137.5q117 -158 80 -346t-192 -293q-102 -70 -211 -72.5t-203 62.5q-96 72 -142.5 180.5t-15.5 223.5zM268 457q20 -92 72.5 -147.5t130.5 -20.5q96 45 134 146.5t11 211.5q-14 55 -79.5 79t-122.5 11q-49 -8 -102.5 -118.5
t-43.5 -161.5zM168 1319q59 53 134 33.5t99 -80.5q31 -70 -10 -144.5t-121 -52.5q-63 18 -73 29q-66 61 -66 131q0 49 37 84zM698 1313q35 -20 40 -64.5t-13 -77.5q-23 -53 -81 -84.5t-105 0.5q-37 25 -50.5 66t-1 78t41 67.5t73.5 35t96 -20.5z" />
    <glyph glyph-name="Ugrave" unicode="&#xd9;" horiz-adv-x="983" 
d="M238 145q-109 115 -157 271.5t-40 311.5t57 316q18 57 80 86t123 0q43 -47 31 -96q-55 -127 -69.5 -273.5t31.5 -284.5t155 -204q66 -35 116.5 -20.5t88.5 70t60.5 119t30.5 128.5q18 117 16.5 180.5t-14 179t-12.5 179.5q-8 62 94 94q21 7 86 23q0 -16 20.5 -24.5
t20.5 -16.5q25 -178 28 -310.5t-33 -289t-122 -281.5q-66 -94 -172 -160.5t-219.5 -76t-199.5 78.5zM567 1477q4 -18 11.5 -44t12.5 -41.5t10 -36t6 -32.5t2 -25.5t-2 -21.5t-8 -16.5t-14.5 -12.5t-23.5 -6q-23 -2 -42 9.5t-29.5 23.5t-26.5 39l-127 180q-33 51 17 94
t106 37q71 -8 108 -147z" />
    <glyph glyph-name="Uacute" unicode="&#xda;" horiz-adv-x="983" 
d="M238 145q-109 115 -157 271.5t-40 311.5t57 316q18 57 80 86t123 0q43 -47 31 -96q-55 -127 -69.5 -273.5t31.5 -284.5t155 -204q66 -35 116.5 -20.5t88.5 70t60.5 119t30.5 128.5q18 117 16.5 180.5t-14 179t-12.5 179.5q-8 62 94 94q21 7 86 23q0 -16 20.5 -24.5
t20.5 -16.5q25 -178 28 -310.5t-33 -289t-122 -281.5q-66 -94 -172 -160.5t-219.5 -76t-199.5 78.5zM535 1440q25 47 41 72.5t46.5 48t65.5 22.5q20 0 44 -24.5t16 -42.5q-31 -82 -56.5 -119t-95.5 -101q-16 -14 -36.5 -26.5t-43 -16.5t-31.5 17q-12 29 -8 54.5t8 33.5
t21 32.5t29 49.5z" />
    <glyph glyph-name="Ucircumflex" unicode="&#xdb;" horiz-adv-x="983" 
d="M238 145q-109 115 -157 271.5t-40 311.5t57 316q18 57 80 86t123 0q43 -47 31 -96q-55 -127 -69.5 -273.5t31.5 -284.5t155 -204q66 -35 116.5 -20.5t88.5 70t60.5 119t30.5 128.5q18 117 16.5 180.5t-14 179t-12.5 179.5q-8 62 94 94q21 7 86 23q0 -16 20.5 -24.5
t20.5 -16.5q25 -178 28 -310.5t-33 -289t-122 -281.5q-66 -94 -172 -160.5t-219.5 -76t-199.5 78.5zM537 1618q29 0 41 -6q20 -27 115 -244t98 -233q-8 0 -19.5 -16.5t-21.5 -12.5q-8 4 -35 7t-48.5 7t-23.5 10q-55 137 -125 232q-16 -33 -31.5 -57.5t-37 -50l-30.5 -36
t-44 -45t-47 -47.5q-23 -16 -55.5 -15t-59.5 13q-43 18 -6 70l81 111.5l77.5 106.5t64.5 95.5t66 110.5h41z" />
    <glyph glyph-name="Udieresis" unicode="&#xdc;" horiz-adv-x="983" 
d="M238 145q-109 115 -157 271.5t-40 311.5t57 316q18 57 80 86t123 0q43 -47 31 -96q-55 -127 -69.5 -273.5t31.5 -284.5t155 -204q66 -35 116.5 -20.5t88.5 70t60.5 119t30.5 128.5q18 117 16.5 180.5t-14 179t-12.5 179.5q-8 62 94 94q21 7 86 23q0 -16 20.5 -24.5
t20.5 -16.5q25 -178 28 -310.5t-33 -289t-122 -281.5q-66 -94 -172 -160.5t-219.5 -76t-199.5 78.5zM264 1526q59 53 134 33.5t100 -80.5q31 -70 -10.5 -144.5t-120.5 -52.5q-63 18 -74 29q-66 61 -66 131q0 49 37 84zM795 1520q35 -20 40 -64.5t-14 -77.5
q-23 -53 -81 -84.5t-105 0.5q-37 25 -50.5 66t-1 78t41 67.5t74 35t96.5 -20.5z" />
    <glyph glyph-name="agrave" unicode="&#xe0;" horiz-adv-x="724" 
d="M528 -43q-16 10 -33.5 42t-31.5 32l-87.5 12t-92 15.5t-78.5 21.5t-78 40.5t-55 65.5q-39 59 -31 146.5t49 140.5q47 63 110.5 101t122 50.5t109.5 13.5t84 -2l33 -3q16 20 16 71.5t-30 57.5q-31 14 -83.5 6t-74 -14t-71.5 -27.5t-77 -30.5q-53 -18 -77.5 58.5t-4.5 97.5
q78 53 184.5 79.5t212 1t148.5 -115.5q29 -59 32 -132t-10.5 -130t-30.5 -138t-21 -138q-17 -257 -59 -313q-30 -39 -75 -9zM492 205q6 29 18 71.5l19.5 69.5t6.5 65t-18 76q-33 -12 -99.5 -23t-110.5 -20.5t-81 -45.5t-39 -97q0 -41 75 -73.5t143 -34.5t86 12zM465 1255
q4 -18 11 -43.5t12.5 -41t10.5 -36t6 -32.5t2 -25.5t-2 -21.5t-8 -16.5t-14.5 -12.5t-23.5 -6q-23 -2 -42.5 9t-29.5 23.5t-27 39.5l-127 180q-33 51 17.5 94t105.5 37q72 -9 109 -148z" />
    <glyph glyph-name="aacute" unicode="&#xe1;" horiz-adv-x="724" 
d="M528 -43q-16 10 -33.5 42t-31.5 32l-87.5 12t-92 15.5t-78.5 21.5t-78 40.5t-55 65.5q-39 59 -31 146.5t49 140.5q47 63 110.5 101t122 50.5t109.5 13.5t84 -2l33 -3q16 20 16 71.5t-30 57.5q-31 14 -83.5 6t-74 -14t-71.5 -27.5t-77 -30.5q-53 -18 -77.5 58.5t-4.5 97.5
q78 53 184.5 79.5t212 1t148.5 -115.5q29 -59 32 -132t-10.5 -130t-30.5 -138t-21 -138q-17 -257 -59 -313q-30 -39 -75 -9zM492 205q6 29 18 71.5l19.5 69.5t6.5 65t-18 76q-33 -12 -99.5 -23t-110.5 -20.5t-81 -45.5t-39 -97q0 -41 75 -73.5t143 -34.5t86 12zM420 1210
q25 47 41 73t47 48.5t65 22.5q20 0 44 -24.5t16 -43.5q-31 -82 -56.5 -119t-95.5 -100q-16 -14 -36.5 -26.5t-43 -16.5t-30.5 16q-12 29 -8 54.5t8 34t20.5 32.5t28.5 49z" />
    <glyph glyph-name="acircumflex" unicode="&#xe2;" horiz-adv-x="724" 
d="M528 -43q-16 10 -33.5 42t-31.5 32l-87.5 12t-92 15.5t-78.5 21.5t-78 40.5t-55 65.5q-39 59 -31 146.5t49 140.5q47 63 110.5 101t122 50.5t109.5 13.5t84 -2l33 -3q16 20 16 71.5t-30 57.5q-31 14 -83.5 6t-74 -14t-71.5 -27.5t-77 -30.5q-53 -18 -77.5 58.5t-4.5 97.5
q78 53 184.5 79.5t212 1t148.5 -115.5q29 -59 32 -132t-10.5 -130t-30.5 -138t-21 -138q-17 -257 -59 -313q-30 -39 -75 -9zM492 205q6 29 18 71.5l19.5 69.5t6.5 65t-18 76q-33 -12 -99.5 -23t-110.5 -20.5t-81 -45.5t-39 -97q0 -41 75 -73.5t143 -34.5t86 12zM475 1384
q29 0 41 -6q20 -27 115.5 -243.5t97.5 -233.5q-8 0 -19.5 -16.5t-21.5 -12.5q-8 4 -34.5 7.5t-48 7.5t-23.5 10q-55 137 -125 231q-16 -33 -31.5 -57t-37 -50t-31 -36l-44 -45t-47.5 -47q-23 -16 -55.5 -15t-58.5 13q-43 18 -7 70l81 111.5l78 106.5t65 95t65 110h41z" />
    <glyph glyph-name="atilde" unicode="&#xe3;" horiz-adv-x="724" 
d="M528 -43q-16 10 -33.5 42t-31.5 32l-87.5 12t-92 15.5t-78.5 21.5t-78 40.5t-55 65.5q-39 59 -31 146.5t49 140.5q47 63 110.5 101t122 50.5t109.5 13.5t84 -2l33 -3q16 20 16 71.5t-30 57.5q-31 14 -83.5 6t-74 -14t-71.5 -27.5t-77 -30.5q-53 -18 -77.5 58.5t-4.5 97.5
q78 53 184.5 79.5t212 1t148.5 -115.5q29 -59 32 -132t-10.5 -130t-30.5 -138t-21 -138q-17 -257 -59 -313q-30 -39 -75 -9zM492 205q6 29 18 71.5l19.5 69.5t6.5 65t-18 76q-33 -12 -99.5 -23t-110.5 -20.5t-81 -45.5t-39 -97q0 -41 75 -73.5t143 -34.5t86 12zM141 1339
q39 39 65.5 60.5t64.5 41t77 16.5t80 -27q33 -20 47 -85t29 -85q20 -29 35.5 -34t30 9t28.5 33.5t41 45t57 40.5q37 12 56.5 -14.5t5.5 -55.5q-82 -125 -134.5 -165t-146.5 -44q-41 -2 -73.5 24.5t-47.5 71.5q-14 43 -28.5 64.5t-32.5 15.5q-45 -14 -75 -47t-42 -59.5
t-47 -42t-96 -2.5q-18 6 -20.5 36.5t12 51t30 46.5t22.5 35l22 27t40 43z" />
    <glyph glyph-name="adieresis" unicode="&#xe4;" horiz-adv-x="724" 
d="M528 -43q-16 10 -33.5 42t-31.5 32l-87.5 12t-92 15.5t-78.5 21.5t-78 40.5t-55 65.5q-39 59 -31 146.5t49 140.5q47 63 110.5 101t122 50.5t109.5 13.5t84 -2l33 -3q16 20 16 71.5t-30 57.5q-31 14 -83.5 6t-74 -14t-71.5 -27.5t-77 -30.5q-53 -18 -77.5 58.5t-4.5 97.5
q78 53 184.5 79.5t212 1t148.5 -115.5q29 -59 32 -132t-10.5 -130t-30.5 -138t-21 -138q-17 -257 -59 -313q-30 -39 -75 -9zM492 205q6 29 18 71.5l19.5 69.5t6.5 65t-18 76q-33 -12 -99.5 -23t-110.5 -20.5t-81 -45.5t-39 -97q0 -41 75 -73.5t143 -34.5t86 12zM98 1284
q59 53 134 33.5t100 -80.5q31 -70 -10 -144.5t-121 -52.5q-63 18 -74 29q-66 61 -66 131q0 49 37 84zM629 1278q35 -20 40 -64.5t-14 -76.5q-23 -53 -81 -85t-105 1q-37 25 -50 65.5t-1 77.5t40.5 67.5t74 35t96.5 -20.5z" />
    <glyph glyph-name="aring" unicode="&#xe5;" horiz-adv-x="724" 
d="M528 -43q-16 10 -33.5 42t-31.5 32l-87.5 12t-92 15.5t-78.5 21.5t-78 40.5t-55 65.5q-39 59 -31 146.5t49 140.5q47 63 110.5 101t122 50.5t109.5 13.5t84 -2l33 -3q16 20 16 71.5t-30 57.5q-31 14 -83.5 6t-74 -14t-71.5 -27.5t-77 -30.5q-53 -18 -77.5 58.5t-4.5 97.5
q78 53 184.5 79.5t212 1t148.5 -115.5q29 -59 32 -132t-10.5 -130t-30.5 -138t-21 -138q-17 -257 -59 -313q-30 -39 -75 -9zM492 205q6 29 18 71.5l19.5 69.5t6.5 65t-18 76q-33 -12 -99.5 -23t-110.5 -20.5t-81 -45.5t-39 -97q0 -41 75 -73.5t143 -34.5t86 12zM535 956
q-63 -63 -125 -28q-70 41 -76 119q-8 61 39 113t108 63q53 10 97 -45q37 -59 21.5 -116t-64.5 -106zM492 1036q31 45 14 72q-10 18 -25 18q-20 0 -35.5 -15t-17.5 -34q-4 -43 31 -55q15 -9 33 14z" />
    <glyph glyph-name="ccedilla" unicode="&#xe7;" horiz-adv-x="774" 
d="M569 43q12 -12 -1 -113.5t-40 -128.5q-37 -37 -117.5 -46t-136.5 22q-96 57 -28 125q20 20 79.5 3.5t80.5 2.5q16 2 11 66.5t-1 80.5q-57 8 -129 29q-141 41 -212 168t-46 280q33 195 170 316q4 4 33.5 30.5l38 34t37 31t40.5 31.5l40 25.5t44.5 22.5l43 13t46 8t44 -4
t46.5 -14q47 -20 27 -80q-18 -55 -58 -85t-101.5 -54.5t-96.5 -48.5q-152 -117 -160 -246q-8 -115 43 -190q14 -25 39 -42.5t43.5 -24.5t55 -18.5t51.5 -17.5q47 -18 94 8.5t94 63.5t82 39q31 2 42 -16.5t5 -47t-15 -52.5t-20 -40q-66 -98 -180 -119z" />
    <glyph glyph-name="egrave" unicode="&#xe8;" horiz-adv-x="694" 
d="M45 578q-4 154 96.5 248t249.5 73q123 -16 214 -118.5t89 -229.5q-18 -57 -168.5 -146.5t-171.5 -109.5q-10 -2 -25.5 -16.5t-6.5 -26.5q25 -45 61.5 -63.5t82.5 -10.5t84 22.5t89 41.5q53 -41 33.5 -110t-82.5 -79q-4 0 -45 -7t-51.5 -8t-45 -4t-53 0t-45 8t-51.5 15
q-246 111 -254 521zM268 473q184 8 221 129q33 72 -53 110t-153 3q-41 -23 -54.5 -81.5t0.5 -108.5t39 -52zM360 1223q4 -18 11.5 -44t12.5 -41.5t10 -36t6 -32.5t2 -25.5t-2 -21.5t-8 -16.5t-14 -12.5t-24 -6q-23 -2 -42 9.5t-29.5 23.5t-26.5 39l-127 180q-33 51 17.5 94
t105.5 37q71 -8 108 -147z" />
    <glyph glyph-name="eacute" unicode="&#xe9;" horiz-adv-x="694" 
d="M45 578q-4 154 96.5 248t249.5 73q123 -16 214 -118.5t89 -229.5q-18 -57 -168.5 -146.5t-171.5 -109.5q-10 -2 -25.5 -16.5t-6.5 -26.5q25 -45 61.5 -63.5t82.5 -10.5t84 22.5t89 41.5q53 -41 33.5 -110t-82.5 -79q-4 0 -45 -7t-51.5 -8t-45 -4t-53 0t-45 8t-51.5 15
q-246 111 -254 521zM268 473q184 8 221 129q33 72 -53 110t-153 3q-41 -23 -54.5 -81.5t0.5 -108.5t39 -52zM375 1174q25 47 41 72.5t47 48t65 22.5q20 0 44 -24.5t16 -43.5q-31 -82 -56.5 -118.5t-95.5 -100.5q-16 -14 -36.5 -26.5t-43 -16.5t-30.5 17q-12 29 -8 54t8 33.5
t20.5 33t28.5 49.5z" />
    <glyph glyph-name="ecircumflex" unicode="&#xea;" horiz-adv-x="694" 
d="M45 578q-4 154 96.5 248t249.5 73q123 -16 214 -118.5t89 -229.5q-18 -57 -168.5 -146.5t-171.5 -109.5q-10 -2 -25.5 -16.5t-6.5 -26.5q25 -45 61.5 -63.5t82.5 -10.5t84 22.5t89 41.5q53 -41 33.5 -110t-82.5 -79q-4 0 -45 -7t-51.5 -8t-45 -4t-53 0t-45 8t-51.5 15
q-246 111 -254 521zM268 473q184 8 221 129q33 72 -53 110t-153 3q-41 -23 -54.5 -81.5t0.5 -108.5t39 -52zM358 1358q29 0 41 -6q20 -27 115.5 -244t97.5 -234q-8 0 -19 -16t-22 -12q-8 4 -34.5 7t-48 7t-23.5 10q-55 137 -125 232q-16 -33 -31.5 -57.5t-37 -50l-31 -36
t-44 -45t-46.5 -47.5q-23 -16 -56 -15t-59 13q-43 18 -6 70l81 111.5l77.5 106.5t64.5 95.5t65 110.5h41z" />
    <glyph glyph-name="edieresis" unicode="&#xeb;" horiz-adv-x="694" 
d="M45 578q-4 154 96.5 248t249.5 73q123 -16 214 -118.5t89 -229.5q-18 -57 -168.5 -146.5t-171.5 -109.5q-10 -2 -25.5 -16.5t-6.5 -26.5q25 -45 61.5 -63.5t82.5 -10.5t84 22.5t89 41.5q53 -41 33.5 -110t-82.5 -79q-4 0 -45 -7t-51.5 -8t-45 -4t-53 0t-45 8t-51.5 15
q-246 111 -254 521zM268 473q184 8 221 129q33 72 -53 110t-153 3q-41 -23 -54.5 -81.5t0.5 -108.5t39 -52zM92 1272q59 53 134 33.5t100 -80.5q31 -70 -10.5 -144.5t-120.5 -52.5q-63 18 -74 29q-66 61 -66 131q0 49 37 84zM623 1266q35 -20 40 -64.5t-14 -77.5
q-23 -53 -81 -84.5t-105 0.5q-37 25 -50.5 66t-1 78t41 67.5t74 35t96.5 -20.5z" />
    <glyph glyph-name="igrave" unicode="&#xec;" horiz-adv-x="378" 
d="M86 518q0 162 37 234q20 39 67.5 52t92.5 -7q33 -14 49 -42t-4 -57q-37 -51 -41 -143t-13 -117q-18 -47 -2.5 -143t2.5 -143q0 -6 -6 -16.5t-12 -10.5q-137 -39 -162 37q-16 53 -18 111.5t4 135t6 109.5zM248 1122q4 -18 11 -43.5t12 -41t10.5 -36t6.5 -33l2 -25.5
t-2 -21.5t-8.5 -16.5t-14.5 -12t-23 -6q-23 -2 -42.5 9t-29.5 23.5t-27 38.5l-127 181q-33 51 17.5 94t105.5 37q72 -9 109 -148z" />
    <glyph glyph-name="iacute" unicode="&#xed;" horiz-adv-x="378" 
d="M86 518q0 162 37 234q20 39 67.5 52t92.5 -7q33 -14 49 -42t-4 -57q-37 -51 -41 -143t-13 -117q-18 -47 -2.5 -143t2.5 -143q0 -6 -6 -16.5t-12 -10.5q-137 -39 -162 37q-16 53 -18 111.5t4 135t6 109.5zM221 1139q25 47 41.5 72.5t47 48t65.5 22.5q20 0 43.5 -24.5
t15.5 -43.5q-31 -82 -56.5 -118.5t-94.5 -100.5q-16 -14 -37 -26.5t-43.5 -16.5t-30.5 17q-12 29 -8 54.5t8 33.5t20.5 32.5t28.5 49.5z" />
    <glyph glyph-name="icircumflex" unicode="&#xee;" horiz-adv-x="378" 
d="M86 518q0 162 37 234q20 39 67.5 52t92.5 -7q33 -14 49 -42t-4 -57q-37 -51 -41 -143t-13 -117q-18 -47 -2.5 -143t2.5 -143q0 -6 -6 -16.5t-12 -10.5q-137 -39 -162 37q-16 53 -18 111.5t4 135t6 109.5zM236 1323q29 0 40 -6q20 -27 115.5 -244t97.5 -233
q-8 0 -19 -16.5t-21 -12.5q-8 4 -35 7t-48.5 7t-23.5 11q-55 137 -125 231q-16 -33 -31.5 -57.5t-37 -50l-30.5 -36t-44 -45t-47 -47.5q-23 -16 -55.5 -15t-59.5 13q-43 18 -6 70l81 111.5l77.5 106.5t64.5 95.5t66 110.5h41z" />
    <glyph glyph-name="idieresis" unicode="&#xef;" horiz-adv-x="378" 
d="M86 518q0 162 37 234q20 39 67.5 52t92.5 -7q33 -14 49 -42t-4 -57q-37 -51 -41 -143t-13 -117q-18 -47 -2.5 -143t2.5 -143q0 -6 -6 -16.5t-12 -10.5q-137 -39 -162 37q-16 53 -18 111.5t4 135t6 109.5zM-33 1212q59 53 134 34t100 -81q31 -70 -10 -144.5t-121 -51.5
q-63 18 -74 28q-66 61 -66 131q0 49 37 84zM498 1206q35 -20 40 -64t-14 -77q-23 -53 -81 -85t-105 1q-37 25 -50.5 65.5t-1 77.5t41 68t74 35t96.5 -21z" />
    <glyph glyph-name="ntilde" unicode="&#xf1;" horiz-adv-x="737" 
d="M90 444q0 33 -6 110t-4 131t18 97q18 47 83 44t79 -54q8 -29 -5 -82t-13 -74q4 -4 11 -17q6 -8 7 -7q4 6 19.5 32.5t20.5 36t20.5 32t23.5 30.5t23.5 25.5t28 23.5t29.5 15.5t33.5 10.5t36 0t42.5 -7q33 -51 54 -107.5t31.5 -134.5t14.5 -114t8 -139t4 -120
q20 -90 -26 -104q-131 -35 -140 18q-12 78 -18 246t-25 256q-57 -63 -112.5 -209.5t-85.5 -198.5q-25 -41 -75 -43t-69 43q-12 35 -14 77t2 100t4 83zM166 1186q39 39 65.5 60.5t64.5 41t77 16t80 -27.5q33 -20 47 -85t28 -85q20 -29 36 -34t30 9.5t28.5 34t41 45t57.5 39.5
q37 12 56.5 -14.5t4.5 -55.5q-82 -125 -134 -164.5t-146 -43.5q-41 -2 -74 24.5t-47 71.5q-14 43 -28.5 64.5t-33.5 15.5q-45 -14 -74.5 -47t-42 -59.5t-47 -42t-96.5 -3.5q-18 6 -20 37t12.5 51.5t29.5 46t22.5 34.5l22.5 27.5t40 43.5z" />
    <glyph glyph-name="ograve" unicode="&#xf2;" horiz-adv-x="577" 
d="M217 268q-102 61 -145 176t-9 234q18 68 71.5 142.5t60.5 88.5q41 78 123.5 70t146.5 -78q68 -78 100 -201q55 -207 -141 -413q-33 -35 -99.5 -39.5t-107.5 20.5zM283 471q70 -16 102.5 31t17 120.5t-68.5 133.5q-23 24 -79 -39q-75 -84 -64 -161q9 -66 92 -85zM301 1364
q4 -18 11 -44t12.5 -41t10.5 -35.5t6 -33l2 -26t-2 -21.5t-8 -16t-14.5 -12.5t-23.5 -6.5q-23 -2 -42.5 9.5t-29.5 24t-26 38.5l-127 180q-33 51 17 94.5t106 36.5q71 -8 108 -147z" />
    <glyph glyph-name="oacute" unicode="&#xf3;" horiz-adv-x="577" 
d="M217 268q-102 61 -145 176t-9 234q18 68 71.5 142.5t60.5 88.5q41 78 123.5 70t146.5 -78q68 -78 100 -201q55 -207 -141 -413q-33 -35 -99.5 -39.5t-107.5 20.5zM283 471q70 -16 102.5 31t17 120.5t-68.5 133.5q-23 24 -79 -39q-75 -84 -64 -161q9 -66 92 -85zM352 1266
q25 47 41.5 72.5t47 48t65.5 22.5q20 0 43.5 -24.5t15.5 -43.5q-31 -82 -56.5 -118.5t-94.5 -100.5q-16 -14 -37 -26.5t-43.5 -16.5t-30.5 17q-12 29 -8 54.5t8 33.5t20.5 32.5t28.5 49.5z" />
    <glyph glyph-name="ocircumflex" unicode="&#xf4;" horiz-adv-x="577" 
d="M217 268q-102 61 -145 176t-9 234q18 68 71.5 142.5t60.5 88.5q41 78 123.5 70t146.5 -78q68 -78 100 -201q55 -207 -141 -413q-33 -35 -99.5 -39.5t-107.5 20.5zM283 471q70 -16 102.5 31t17 120.5t-68.5 133.5q-23 24 -79 -39q-75 -84 -64 -161q9 -66 92 -85zM309 1438
q29 0 41 -6q20 -27 115.5 -244t97.5 -234q-8 0 -19.5 -16t-21.5 -12q-8 4 -34.5 7t-48 7t-23.5 10q-55 137 -125 232q-16 -33 -31.5 -57.5t-37 -50l-31 -36t-44 -45.5t-47.5 -47q-23 -16 -55.5 -15t-58.5 13q-43 18 -6 70l81 111.5l77.5 106.5t64.5 95t65 111h41z" />
    <glyph glyph-name="otilde" unicode="&#xf5;" horiz-adv-x="577" 
d="M217 268q-102 61 -145 176t-9 234q18 68 71.5 142.5t60.5 88.5q41 78 123.5 70t146.5 -78q68 -78 100 -201q55 -207 -141 -413q-33 -35 -99.5 -39.5t-107.5 20.5zM283 471q70 -16 102.5 31t17 120.5t-68.5 133.5q-23 24 -79 -39q-75 -84 -64 -161q9 -66 92 -85zM92 1331
q39 39 65.5 60.5t64.5 41t77 16.5t80 -28q33 -20 47 -84.5t29 -85.5q20 -29 35.5 -34t30 9.5t28.5 34t40.5 45t57.5 40.5q37 12 56.5 -14.5t5.5 -55.5q-82 -125 -134.5 -165t-146.5 -44q-41 -2 -73.5 24.5t-47.5 71.5q-14 43 -28.5 64.5t-32.5 15.5q-45 -14 -75 -47
t-42 -59.5t-47 -42t-96 -2.5q-18 6 -20.5 36.5t12 51t30 46t22.5 35t22 27.5t40 43z" />
    <glyph glyph-name="odieresis" unicode="&#xf6;" horiz-adv-x="577" 
d="M217 268q-102 61 -145 176t-9 234q18 68 71.5 142.5t60.5 88.5q41 78 123.5 70t146.5 -78q68 -78 100 -201q55 -207 -141 -413q-33 -35 -99.5 -39.5t-107.5 20.5zM283 471q70 -16 102.5 31t17 120.5t-68.5 133.5q-23 24 -79 -39q-75 -84 -64 -161q9 -66 92 -85zM49 1339
q59 53 134 34t100 -81q31 -70 -10.5 -144.5t-120.5 -51.5q-63 18 -74 28q-66 61 -66 131q0 49 37 84zM580 1333q35 -20 40 -64t-14 -77q-23 -53 -81 -85t-105 1q-37 25 -50.5 65.5t-1 77.5t41 68t74 35t96.5 -21z" />
    <glyph glyph-name="ugrave" unicode="&#xf9;" horiz-adv-x="751" 
d="M53 733q0 10 1 52t3 59.5t13.5 43t33.5 40.5q53 25 114 7.5t61 -69.5q0 -45 -4.5 -127t-4.5 -148.5t9 -125.5q4 -12 9 -41t10 -49.5l12 -50t15.5 -45t20.5 -33t24.5 -15.5t30.5 9q133 90 164 269t-61 327q-18 29 -28.5 57.5t-8.5 57t27 38.5q98 41 173.5 -49t82.5 -197
q12 -211 -54.5 -395t-222.5 -252q-104 -47 -180 -18.5t-125 97.5t-77 170t-36 199.5t-2 188.5zM367 1317q4 -18 11 -44t12 -41t10.5 -35.5t6.5 -33l2 -26t-2.5 -21.5t-8.5 -16t-14 -12.5t-24 -6.5q-23 -2 -42 9.5t-29 23.5t-27 39l-127 180q-33 51 17.5 94t105.5 37
q72 -8 109 -147z" />
    <glyph glyph-name="uacute" unicode="&#xfa;" horiz-adv-x="751" 
d="M53 733q0 10 1 52t3 59.5t13.5 43t33.5 40.5q53 25 114 7.5t61 -69.5q0 -45 -4.5 -127t-4.5 -148.5t9 -125.5q4 -12 9 -41t10 -49.5l12 -50t15.5 -45t20.5 -33t24.5 -15.5t30.5 9q133 90 164 269t-61 327q-18 29 -28.5 57.5t-8.5 57t27 38.5q98 41 173.5 -49t82.5 -197
q12 -211 -54.5 -395t-222.5 -252q-104 -47 -180 -18.5t-125 97.5t-77 170t-36 199.5t-2 188.5zM369 1286q25 47 41 72.5t46.5 48.5t65.5 23q20 0 44 -25t16 -43q-31 -82 -56.5 -119t-95.5 -100q-16 -14 -36.5 -26.5t-43 -16.5t-31.5 16q-12 29 -8 54.5t8.5 33.5t21 32.5
t28.5 49.5z" />
    <glyph glyph-name="ucircumflex" unicode="&#xfb;" horiz-adv-x="751" 
d="M53 733q0 10 1 52t3 59.5t13.5 43t33.5 40.5q53 25 114 7.5t61 -69.5q0 -45 -4.5 -127t-4.5 -148.5t9 -125.5q4 -12 9 -41t10 -49.5l12 -50t15.5 -45t20.5 -33t24.5 -15.5t30.5 9q133 90 164 269t-61 327q-18 29 -28.5 57.5t-8.5 57t27 38.5q98 41 173.5 -49t82.5 -197
q12 -211 -54.5 -395t-222.5 -252q-104 -47 -180 -18.5t-125 97.5t-77 170t-36 199.5t-2 188.5zM383 1493q29 0 41 -6q20 -27 115.5 -244t97.5 -233q-8 0 -19.5 -16.5t-21.5 -12.5q-8 4 -34.5 7t-48 7t-24.5 11q-55 137 -124 231q-16 -33 -32 -57.5t-37.5 -50l-30.5 -36
t-44 -45t-47 -47.5q-23 -16 -55.5 -15t-59.5 13q-43 18 -6 70l81 111.5l78 106.5t64.5 95.5t65.5 110.5h41z" />
    <glyph glyph-name="udieresis" unicode="&#xfc;" horiz-adv-x="751" 
d="M53 733q0 10 1 52t3 59.5t13.5 43t33.5 40.5q53 25 114 7.5t61 -69.5q0 -45 -4.5 -127t-4.5 -148.5t9 -125.5q4 -12 9 -41t10 -49.5l12 -50t15.5 -45t20.5 -33t24.5 -15.5t30.5 9q133 90 164 269t-61 327q-18 29 -28.5 57.5t-8.5 57t27 38.5q98 41 173.5 -49t82.5 -197
q12 -211 -54.5 -395t-222.5 -252q-104 -47 -180 -18.5t-125 97.5t-77 170t-36 199.5t-2 188.5zM98 1325q59 53 134 33.5t100 -80.5q31 -70 -10 -144.5t-121 -52.5q-63 18 -74 29q-66 61 -66 131q0 49 37 84zM629 1319q35 -20 40 -64.5t-14 -76.5q-23 -53 -81 -85t-105 1
q-37 25 -50 65.5t-1 77.5t40.5 67.5t74 35t96.5 -20.5z" />
  </font>
</defs>
</svg>
